[TVB][香港][時裝懸疑][佘詩曼 林保怡][天與地][BD-MKV/1.04G/720P/粵語/中字][FS/WU/FSC]
[TVB][2011][香港][時裝懸疑][佘詩曼 林保怡][天與地][BD-MKV/1.04G/720P/粵語/中字][FS/WU/FSC]空間下載
2011年TVB最新熱播劇集《天與地 When Heaven Burns》【720P高清TV粵語中字】FS WU FSC
【劇 名】:天與地
【英 名】:When Heaven Burns
【監 制】:戚其義
【編 導】:陳耀全、陸天華、黃國強
【編 審】:周旭明
【編 劇】:周旭明
【統 籌】:周慕妍
【日 期】:2011年11月21日-2012年1月1日
【製 作】:2009年9月-2010年1月
【播出時間】:逢星期一至五 9:30PM 翡翠台、9:30PM 高清翡翠台
【首播日期】:2011年11月21日
【類 型】:時裝懸疑
【製 作】:香港電視廣播有限公司
【集 數】:30集
【接 檔】: 法證先鋒III ←→上一檔:11月20日 / 下一檔:1月3日 ←→ 未定
【主 演】:陳豪 (飾宋以朗), 林保怡 (飾劉俊雄), 黃德斌 (飾鄭振軒), 佘詩曼 (飾葉梓恩), 邵美琪 (飾翁卓桐), 朱慧敏 (飾林佩玲), 金燕玲 (飾翁卓樺), 湯盈盈 (飾楊雪薇), 陳芷菁 (飾馬詠儀)
【其他演員】:李思雅, 張國強, 陳鴻烈
【語 言】:粵語
【字 幕】:中文
【影片大小】:1.03 GB
【官方網站】:http://programme.tvb.com/drama/whenheavenburns/
【維基百科】:http://zh.wikipedia.org/wiki/天與地_(2011年電視劇)
【播 放】:高清播放與具體劇情介紹




劇情簡介
首播日期: 2011.11.21
死亡旅程
一九九二年,許家明(張景淳飾)與劉俊雄(羅鈞滿飾)、鄭振軒(梁証嘉飾)、宋以朗(楊潮凱飾)組成搖滾樂隊,並偕同女友葉梓恩(蔣家旻飾)共同渡過生命最充實十一個月日子。
同年冬天,樂隊演出的機會愈來愈少,四人間的音樂創作火花亦愈來愈不濟,眾人心中知又是另一次樂隊解散的時刻來臨。家明提出臨別前,拿起背囊齊齊闖一次嚮往以久的新彊天山,最終,由於一次情侶間的小吵鬧,五人行變成了四男之旅。途中遇上風雪,令四人滯留荒涼山野二十日。結果只得朗、雄和軒三人走出風雪,明卻人間蒸發…樂隊也因而解散。

不倫孽戀
十八年來各散東西,如今聚首,膽怯地回想青蔥歲月,戰兢地眺望未知明天。葉梓恩(余詩曼飾)為完成家明遺願,試圖原諒三名昔日與明共赴死亡旅程的友人,努力重拾友誼,以個人微薄的影響力,一心打造首個真真正正屬於香港本土的地下搖滾音樂節。可惜,再一次,與劉俊雄(林保怡飾)、鄭振軒(黃德斌飾)和宋以朗(陳豪飾)發展出不倫孽戀。
馬詠儀(陳芷菁飾)以為雄解散樂隊,重操會計老本行就會安守本份,但甜蜜的婚姻生活未足兩年,雄再次捨棄本行,追隨工運領袖江兆泉(劉丹飾),全心投入爭取勞工福利工作。十五年來,雄只贏得點點社會名聲,卻輸掉了一段婚姻,若非儀仍心有不甘,二人根本難再生活於同一屋簷下。以為對丈夫一事無成的性格了解通透的儀,又怎料到雄半世人生中的兩個重大秘密,其一,就是對故人女友恩十八年來的傾慕之情。
翁卓桐(邵美琪飾)亡父遺下過億家財,二十年來由長姐翁卓樺(金燕玲飾)接手努力經營。樺以清洗黑錢及經營黑市期指來鞏固家業實力,而溫室保護下的桐,不顧樺反對與朗結婚,對朗仍一往情深,就算得知朗十八年來心繫恩一人,桐仍不放棄一絲絲能令朗浪子回頭的希望。

以家為重的楊雪薇(湯盈盈飾),儘管得知軒身患遺傳性眼疾,終會失明終老,仍難捨難離。軒樂觀強者個性,感染周遭眾人,感動得雄、朗、恩為放下家明離世藏在心中的傷痛,十八年後難得再續情誼。而定期聚會中,恩與軒不自覺產生好感,使二人關係變得瞹眛。

三名難得重拾舊情的好朋友,三段先後試圖與恩開展的婚外情緣,把恩纏擾得頭昏腦脹,此刻,又傳來天山冰川溶解,暴露出明屍首的離奇事…

人物關係圖↓


※人物詳細介紹※

※精采片段影片※

※劇  照※








※截  圖※

※影片格式資訊※
General
Complete name : TVB.2011.天與地.When.Heaven.Burns.E01.HDz.720p.mkv
Format : Matroska
File size : 1.04 GiB
Duration : 43mn 51s
Overall bit rate : 3 390 Kbps
Encoded date : UTC 2011-11-21 15:38:40
Writing application : mkvmerge v2.9.8 ('C'est le bon') built on Aug 13 2009 12:49:06
Writing library : libebml v0.7.7 + libmatroska v0.8.1
Video #1
ID : 1
Format : AVC
Format/Info : Advanced Video Codec
Format profile : Main@L3.1
Format settings, CABAC : Yes
Format settings, ReFrames : 2 frames
Muxing mode : Container profile=Unknown@3.1
Codec ID : V_MPEG4/ISO/AVC
Duration : 43mn 51s
Bit rate : 2 938 Kbps
Nominal bit rate : 3 000 Kbps
Width : 1 280 pixels
Height : 720 pixels
Display aspect ratio : 16:9
Frame rate : 25.000 fps
Resolution : 24 bits
Colorimetry : 4:2:0
Scan type : Progressive
Bits/(Pixel*Frame) : 0.128
Stream size : 922 MiB (87%)
Title : Move(影片軌)
Writing library : x264 core 116 r2074 2641b9e
Encoding settings : cabac=1 / ref=1 / deblock=1:0:0 / analyse=0x1:0x131 / me=hex / subme=4 / psy=1 / psy_rd=1.00:0.00 / mixed_ref=0 / me_range=16 / chroma_me=1 / trellis=0 / 8x8dct=0 / cqm=0 / deadzone=21,11 / fast_pskip=1 / chroma_qp_offset=0 / threads=6 / sliced_threads=0 / nr=0 / decimate=1 / interlaced=0 / bluray_compat=0 / constrained_intra=0 / bframes=3 / b_pyramid=0 / b_adapt=1 / b_bias=0 / direct=1 / weightb=1 / open_gop=0 / weightp=2 / keyint=250 / keyint_min=25 / scenecut=40 / intra_refresh=0 / rc=abr / mbtree=0 / bitrate=3000 / ratetol=1.0 / qcomp=0.60 / qpmin=10 / qpmax=51 / qpstep=4 / ip_ratio=1.40 / pb_ratio=1.30 / aq=1:1.00
Language : Chinese
Audio #2
ID : 2
Format : AC-3
Format/Info : Audio Coding 3
Codec ID : A_AC3
Duration : 43mn 51s
Bit rate mode : Constant
Bit rate : 384 Kbps
Channel(s) : 6 channels
Channel positions : Front: L C R, Surround: L R, LFE
Sampling rate : 48.0 KHz
Video delay : 25ms
Stream size : 120 MiB (11%)
Title : Cantonese(粵語)
Language : Chinese
Text #3
ID : 3
Format : UTF-8
Codec ID : S_TEXT/UTF8
Codec ID/Info : UTF-8 Plain Text
Title : CHT(繁體中文)
Language : Chinese

下載教學步驟一:
進入下載畫面之後,移動到網頁右下方你會看到"普通下載"的按鈕,選擇按下"普通下載"等一下下會出現識別碼,依照顯示的識別碼輸入即可。

下載教學步驟二:
移動到網頁右上方你會看到倒數的秒數出現,等待秒數完成後按下"普通下載"即可下載。

PS:如果識別碼不清楚可以選擇更新輸入後確定等待約20秒即可下載,下載點不支援 訊雷、快車、BT..等等續傳軟體,請使用Mipony 1.5.1白馬下載工具下載。

下載教學網頁圖片請點這裡
KMPlayer 影音播放軟體 (無所不播無所不放安裝版)下載點這裡
下載點不支援 訊雷、快車、BT..等等續傳軟體,請使用Mipony 1.5.1白馬下載工具將可以讓能更加快速便捷。
Mipony 1.5.1免費空間下載加速工具 地址 → 備用 下載點這裡
------------------------------------------------------------------------------------------
2011年TVB最新熱播劇集《天與地 When Heaven Burns》【720P高清TV粵語中字】
------------------------------------------------------------------------------------------
掛機網賺 20dollars2surf,全自動衝浪掛機也可賺錢 ※內附完整教學圖※


點擊此處註冊後可以免費得到一個750GB的空間獲得高速下載通道:
HDTV-720P [MKV]
-== 天與地 When Heaven Burns 第01集至30集[Episode 01 / Episode 30] 下載連結資料夾 ==-
Folder link:http://www.wupload.com/folder/528203
EP01 ─ EP30 http://www.wupload.com/folder/1563902
http://www.wupload.com/file/2534104602/When.Heaven.Burns.E01.HDz.720p.mkv


點擊此處注冊後可以免費得到一個500GB的空間獲得高速下載通道:
Folder link:2011 TVB 天與地 When Heaven Burns 720P Download Folder Link:
EP01 ─ EP30 http://www.fileserve.com/list/HvNJ6CH
http://www.fileserve.com/file/bSxEfgp/When.Heaven.Burns.E01.HDz.720p.mkv


點擊此處註冊後可以免費得到一個750GB的空間獲得高速下載通道:
TVB HDTV Move Download Folder Link:
http://www.filesonic.tw/folder/a285f87aae9922a2f
2011 TVB 天與地 When Heaven Burns 720P Download Folder Link:
EP01 ─ EP30 http://www.filesonic.tw/folder/15367905
http://www.filesonic.com/file/3976950334/When.Heaven.Burns.E01.HDz.720p.mkv
------------------------------------------------------------------------------------
HDTV-480P [RMVB]
WU
Folder link:http://www.wupload.com/folder/1563917
EP01 ─ EP30 http://www.wupload.com/folder/1563917
http://www.wupload.com/file/2533972897/When.Heaven.Burns.E01.rmvb

FS
Folder link:http://www.fileserve.com/list/HvNJ6CH
EP01 ─ EP30 http://www.fileserve.com/list/HvNJ6CH
http://www.fileserve.com/file/zJa7Vdy/When.Heaven.Burns.E01.rmvb

FSC
2011 TVB 天與地 When Heaven Burns Download Folder Link:
http://www.filesonic.tw/folder/a285f87aae9922a2f
HDTV-480P [RMVB]
EP01 ─ EP30 http://www.filesonic.tw/folder/15367925
http://www.filesonic.com/file/3972601914/When.Heaven.Burns.E01.rmvb
------------------------------------------------------------------------------------
要一次下載多個檔案,可以在網路上尋找中轉站下載 各大中轉站的下載速度250K~3M不等(/S每秒下載速度)

點擊此處注冊後可以免費得到一個500GB的空間獲得高速下載通道:
其它香港三級片下載點這裡
WU FS 等等..各大免費下載空間獲取白金高級會員帳號的高速下載使用教學
破解免費空間下載時間限制(適用於多個免空)
其他港劇下載點這裡
分割檔可以使用HJSplit 2.3工具合併
Winrar 繁體中文免安裝版(壓縮解壓縮工具軟體)

※wupload下載教學※


Q:我完全不能下載檔案!這是怎麼回事?
A:如果您沒有FileSonic高級帳戶,某些限制可能會阻止您下載:我們不允許同一個IP位址進行並行下載,同時也限制了某個時間段內您可以從我們伺服器下載的資料總量。如果您與其他FileSonic使用者共用您的IP位址(例如,因為您的網際網路服務提供商使用代理伺服器或NAT),則他們的活動可能會對您產生不利的影響。

Q:我應該使用哪種下載管理器?
A:為了用下載管理器獲得最佳的體驗,我們建議使用最新版本的JDownloader。您可以從這裡 免輸入驗證碼JDownloader中文版下載 免費下載獲得

免輸入驗證碼JDownloader中文版下載

, , , , , , , , ,

☜♥☞阿德 發表在 痞客邦 PIXNET 留言(0) 人氣()