[無碼][2004][香港][四級][香港性暴力擋案之三奸][DVDRip-AVI/697MB/粵語/中字][FSC]空間下載
[無碼][2004][香港][四級][童寧大膽性感演出][香港性暴力擋案之三奸 Triple Raped][DVDRip-AVI/697MB/粵語/中字][FSC]空間下載
【影片名稱】:香港性暴力擋案之三奸
【英文名稱】:Triple Raped
【年  代】:2004
【國  家】:中國香港
【影片類型】:香港經典四級 / 四級情色劇情 / 四點全露打真軍 / 18禁
【影片尺寸】:736 x 560
【影片時間】:01:29:20
【影片大小】:697MB
【影片格式】:AVI 
【有/無碼】:無碼 (片內無礙眼浮水印)
【字 幕】:繁體中文
【語 言】:粵語
【分享空間】:FSC 空間下載
【上傳日期】:2004年10月30日
【有效日期】:檔案如果無法下載請E-mail通知發帖者後,將會盡快處理。E-mail:user8818@gmail.com
【影片尺度】:四級 
【導  演】:邵 強 Siu Keung
【編 劇】:鍾 秋
【製 片】:李浪鳴/ 王文光
【上映日期】:1992年1月23日
【出 品】:海洋製作有限公司 Ocean Production Company
【影片演員】:童寧 April Tung Ling/ 波子 Bo Chi/ 李浪鳴 Lee Long-Ming/ 蔡達華 Choi Tat-Wa/ 小木村/ 錢耀榮 等... 
【檔案數目】:1 
【劇情簡介】:童寧大膽性感演出
本片以兩個“香港痴漢”帶出序幕,串連二幕大膽的強姦好戲,集合禁錮、強姦、口爆、顏射、SM綑綁、性虐待等…畫面極度變態瘋!本片之大膽變態程度,可以話係三級港產片最激的一套!
一姦——靚女OL地鐵被笠,禁錮玩強姦!
二姦——大波靚少婦夜歸被笠,瘋狂大抽插!
三姦——野火靚妹迷魂被笠,淫賤大雜交!
兩個 “香港痴漢”為要爭奪痴漢界之一歌地位而各出奇謀,各自四出捉女玩強姦,三件裸女慘被禁錮密室,困鐵籠!痴漢先以手撕爛靚女衫裙,繼而上演一幕幕“濕身射水戰”,“狗鏈鎖手喂食狗飯”,“忌廉人肉旦糕”,“吹簫強制地獄”等…兩個痴漢各有看家本領,最後誓要決一死戰,爭奪皇者地位!

※截圖如下※


※KMPlayer 截圖如下※ 

※影片格式資訊※
General
Complete name : 香港性暴力擋案之三奸.Triple.Raped.avi
Format : AVI
Format/Info : Audio Video Interleave
File size : 697 MiB
Duration : 1h 29mn
Overall bit rate : 1 091 Kbps
Writing application : VirtualDubMod 1.5.10.2 (build 2540/release)
Writing library : VirtualDubMod build 2540/release
Video #0
ID : 0
Format : AVC
Format/Info : Advanced Video Codec
Codec ID : H264
Duration : 1h 29mn
Bit rate : 874 Kbps
Width : 736 pixels
Height : 560 pixels
Display aspect ratio : 4:3
Frame rate : 23.976 fps
Resolution : 12 bits
Bits/(Pixel*Frame) : 0.088
Stream size : 558 MiB (80%)
Audio #1
ID : 1
Format : MPEG Audio
Format version : Version 1
Format profile : Layer 3
Codec ID : 55
Codec ID/Hint : MP3
Duration : 1h 29mn
Bit rate mode : Variable
Bit rate : 102 Kbps
Nominal bit rate : 96.0 Kbps
Channel(s) : 2 channels
Sampling rate : 32.0 KHz
Resolution : 16 bits
Stream size : 65.2 MiB (9%)
Alignment : Aligned on interleaves
Interleave, duration : 36 ms (0.86 video frame)
Interleave, preload duration : 225 ms
Writing library : LAME3.90.
Encoding settings : -m j -V 4 -q 2 -lowpass 15.4 --abr 96
Audio #2
ID : 2
Format : MPEG Audio
Format version : Version 1
Format profile : Layer 3
Codec ID : 55
Codec ID/Hint : MP3
Duration : 1h 29mn
Bit rate mode : Variable
Bit rate : 100 Kbps
Nominal bit rate : 96.0 Kbps
Channel(s) : 2 channels
Sampling rate : 32.0 KHz
Resolution : 16 bits
Stream size : 64.0 MiB (9%)
Alignment : Aligned on interleaves
Interleave, duration : 36 ms (0.86 video frame)
Interleave, preload duration : 241 ms
Writing library : LAME3.90.
Encoding settings : -m j -V 4 -q 2 -lowpass 15.4 --abr 96
下載教學步驟一:
進入下載畫面之後,移動到網頁右下方你會看到"普通下載"的按鈕,選擇按下"普通下載"等一下下會出現識別碼,依照顯示的識別碼輸入即可。

下載教學步驟二:
移動到網頁右上方你會看到倒數的秒數出現,等待秒數完成後按下"普通下載"即可下載。

PS:如果識別碼不清楚可以選擇更新輸入後確定等待約20秒即可下載,下載點不支援 訊雷、快車、BT..等等續傳軟體,請使用IE瀏覽器下載。

下載教學網頁圖片請點這裡
KMPlayer 影音播放軟體 (無所不播無所不放安裝版) → 下載點這裡
FileServe空間下載 Mipony 1.2.2免費空間下載加速工具 下載地址 → 下載點這裡
xun6空間下載 Mipony 1.2.2免費空間下載加速工具 下載地址 → 下載點這裡
------------------------------------------------------------------------------------------------------------------------------------
-== 2004 香港性暴力擋案之三奸 Triple RapedHD-DVDRip-AVI [480P] ==-
------------------------------------------------------------------------------------------------------------------------------------
掛機網賺 20dollars2surf,全自動衝浪掛機也可賺錢 ※內附完整教學圖※

點擊此處註冊後可以免費得到一個750GB的空間獲得高速下載通道:
X-Rated Movie Download-Folder Link
http://www.filesonic.tw/folder/9b0f90afe6c96f9b1
HD-DVDRip-AVI [480P]
香港性暴力擋案之三奸 Triple Raped Folder Link
http://www.filesonic.com/file/2820763025/Triple.Raped.avi
------------------------------------------------------------------------------------------------------------------------------------
要一次下載多個檔案,可以在網路上尋找中轉站下載 各大中轉站的下載速度250K~3M不等(/S每秒下載速度)

點擊此處注冊後可以免費得到一個500GB的空間獲得高速下載通道: 
其它香港三級片下載點這裡
WU FS FSC等等..各大免費下載空間獲取白金高級會員帳號的高速下載使用教學
破解免費空間下載時間限制(適用於多個免空)
其他港劇下載點這裡
其分割檔可以使用HJSplit 2.3工具合併
Winrar 繁體中文免安裝版(壓縮解壓縮工具軟體)

※wupload下載教學※


Q:我完全不能下載檔案!這是怎麼回事?
A:如果您沒有FileSonic高級帳戶,某些限制可能會阻止您下載:我們不允許同一個IP位址進行並行下載,同時也限制了某個時間段內您可以從我們伺服器下載的資料總量。如果您與其他FileSonic使用者共用您的IP位址(例如,因為您的網際網路服務提供商使用代理伺服器或NAT),則他們的活動可能會對您產生不利的影響。
Q:我應該使用哪種下載管理器?
A:為了用下載管理器獲得最佳的體驗,我們建議使用最新版本的JDownloader。您可以從這裡 免輸入驗證碼JDownloader中文版下載 免費下載獲得
免輸入驗證碼JDownloader中文版下載
免輸入驗證碼JDownloader中文版下載

, , , ,

Posted by ☜♥☞阿德 at 痞客邦 PIXNET 留言(0) 引用(0) 人氣()