[無碼][1995][香港][四級][血戀][DVDRip-AVI/700MB/粵語/中字][FSC]空間下載
【影片名稱】:血戀
【英文名稱】:Ebola Syndrome
【年  代】:1995
【國  家】:中國香港
【影片類型】:香港經典四級 / 四級情色劇情 / 四點全露打真軍
【影片尺寸】:512 x 368
【影片時間】:01:27:55
【影片大小】:700MB
【影片格式】:AVI 
【有/無碼】:無碼 (片內無礙眼浮水印)
【字 幕】:繁體中文
【語 言】:粵語
【分享空間】:FSC 空間下載
【上傳日期】:2011年10月30日
【有效日期】:檔案如果無法下載請E-mail通知發帖者後,將會盡快處理。E-mail:user8818@gmail.com
【影片尺度】:四級 
【導  演】:李華月/ 牟敦芾
【編 劇】:李華月/ 李小鵬
【上映日期】:1995年4月20日
【出 品】:新標準國際有限公司
【影片演員】:李華月/ 陳偉狄/ 蘇國柱/ 尹相林/ 邱惠芳/ 張國源 等... 
【檔案數目】:1 
【劇情簡介】:
賈益生因考試作弊不能完成學業,隻身來港後在大澳養魚及並開設小魚檔謀生,終日怨天尤人。 益生姨媽在國內買了從未見過世面的亞芝回大澳,亞芝晚上被益生變態淫虐,白天則躲在艇居,等候益生回家。 送菜來艇居的青年奀仔,有一次看到亞芝全身赤裸,兩人便情不自禁,此後經常趁益生離艇後幽會。 一天,姨媽突然來探益生,因看到亞芝與奀仔一起而被兩人錯手勒死,屍沉大海。 益生賭博時與人爭執,誤殺對方,逃回艇時看見亞芝與奀仔在艇板上纏綿,益生撲上去狂毆奀仔,但奀仔力氣大,與亞芝合力將益生殺死了。 兩人知道法網難逃,於是潛往山巔,換上新郎新娘裝束,攜手跳下了懸崖。
李華月自編自導自演,終極力作! 一部看完會讓你震驚的電影!
最後的那場激情戲配上了《東方紅》的樂曲,回味悠長。
一定不能錯過!
1995年,一貫開放大膽曾為港版《花花公子》拍過四點寫真的李華月自費籌備三級新片《血戀》,在媒體上發表聲明,以“假戲真作”為條件公開征聘電影男角,號稱拍攝時要“真刀真作,極度寫實”。這樣的噱頭自然在坊間轟動一時,一度成為圈內外的熱門談資,應者一時如雲,很是熱鬧了一番。李華月沒食言,後便誕生了那部著名的驚世駭俗的所謂A片三級《血戀》,只是在港公映時把A剪成了純港三級片罷了。
這是海外公映的版本,毫無刪減,中文字幕供選擇。在香港三級片曆史上,其尺度可以說是空前絕後。
【驚世駭俗】李華月四點全露打真軍《血戀》香港1995年 【香港四級】

※截圖如下※






※影片格式資訊※
   General
      Complete name : 血戀.Trilogy.of.Lust.1995.DVDRip.avi
      Format : AVI
      Format/Info : Audio Video Interleave
      File size : 700 MiB
      Duration : 1h 27mn
      Overall bit rate : 1 113 Kbps
      Writing application : VirtualDubMod 1.5.10.2 (build 2540/release)
      Writing library : VirtualDubMod build 2540/release
   Video #0
      ID : 0
      Format : MPEG-4 Visual
      Format profile : AdvancedSimple@L5
      Format settings, BVOP : Yes
      Format settings, QPel : No
      Format settings, GMC : No warppoints
      Format settings, Matrix : Default (H.263)
      Codec ID : XVID
      Codec ID/Hint : XviD
      Duration : 1h 27mn
      Bit rate : 970 Kbps
      Width : 512 pixels
      Height : 368 pixels
      Display aspect ratio : 4:3
      Frame rate : 25.000 fps
      Resolution : 24 bits
      Colorimetry : 4:2:0
      Scan type : Progressive
      Bits/(Pixel*Frame) : 0.206
      Stream size : 610 MiB (87%)
      Writing library : XviD 1.1.2 (UTC 2006-11-01)
   Audio #1
      ID : 1
      Format : MPEG Audio
      Format version : Version 1
      Format profile : Layer 3
      Codec ID : 55
      Codec ID/Hint : MP3
      Duration : 1h 27mn
      Bit rate mode : Variable
      Bit rate : 130 Kbps
      Nominal bit rate : 135 Kbps
      Channel(s) : 2 channels
      Sampling rate : 48.0 KHz
      Resolution : 16 bits
      Stream size : 81.9 MiB (12%)
      Alignment : Aligned on interleaves
      Interleave, duration : 24 ms (0.60 video frame)
      Interleave, preload duration : 539 ms
      Writing library : LAME3.90.
      Encoding settings : -m j -V 4 -q 2 -lowpass 17.6 --abr 135

下載教學步驟一:
進入下載畫面之後,移動到網頁右下方你會看到"普通下載"的按鈕,選擇按下"普通下載"等一下下會出現識別碼,依照顯示的識別碼輸入即可。

下載教學步驟二:
移動到網頁右上方你會看到倒數的秒數出現,等待秒數完成後按下"普通下載"即可下載。

PS:如果識別碼不清楚可以選擇更新輸入後確定等待約20秒即可下載,下載點不支援 訊雷、快車、BT..等等續傳軟體,請使用IE瀏覽器下載。

下載教學網頁圖片請點這裡
KMPlayer 影音播放軟體 (無所不播無所不放安裝版) → 下載點這裡
FileServe空間下載 Mipony 1.2.2免費空間下載加速工具 下載地址 → 下載點這裡
xun6空間下載 Mipony 1.2.2免費空間下載加速工具 下載地址 → 下載點這裡
------------------------------------------------------------------------------------------------------------------------------------
-== 1995 血戀 Ebola SyndromeHD-DVDRip-WMV [480P] ==-
------------------------------------------------------------------------------------------------------------------------------------
掛機網賺 20dollars2surf,全自動衝浪掛機也可賺錢 ※內附完整教學圖※

點擊此處註冊後可以免費得到一個750GB的空間獲得高速下載通道:
X-Rated Movie Download-Folder Link
http://www.filesonic.tw/folder/9b0f90afe6c96f9b1
HD-DVDRip-AVI [480P]
血戀 Ebola Syndrome Folder Link
http://www.filesonic.com/file/2820772085/Trilogy.of.Lust.1995.DVDRip.avi
------------------------------------------------------------------------------------------------------------------------------------
要一次下載多個檔案,可以在網路上尋找中轉站下載 各大中轉站的下載速度250K~3M不等(/S每秒下載速度)

點擊此處注冊後可以免費得到一個500GB的空間獲得高速下載通道: 
其它香港三級片下載點這裡
WU FS FSC等等..各大免費下載空間獲取白金高級會員帳號的高速下載使用教學
破解免費空間下載時間限制(適用於多個免空)
其他港劇下載點這裡
其分割檔可以使用HJSplit 2.3工具合併
Winrar 繁體中文免安裝版(壓縮解壓縮工具軟體)

※wupload下載教學※


Q:我完全不能下載檔案!這是怎麼回事?
A:如果您沒有FileSonic高級帳戶,某些限制可能會阻止您下載:我們不允許同一個IP位址進行並行下載,同時也限制了某個時間段內您可以從我們伺服器下載的資料總量。如果您與其他FileSonic使用者共用您的IP位址(例如,因為您的網際網路服務提供商使用代理伺服器或NAT),則他們的活動可能會對您產生不利的影響。
Q:我應該使用哪種下載管理器?
A:為了用下載管理器獲得最佳的體驗,我們建議使用最新版本的JDownloader。您可以從這裡 免輸入驗證碼JDownloader中文版下載 免費下載獲得
免輸入驗證碼JDownloader中文版下載
免輸入驗證碼JDownloader中文版下載

, ,

☜♥☞阿德 發表在 痞客邦 PIXNET 留言(0) 人氣()