[無碼][1994][香港][三級][青樓十二房][DVDRip-MKV/397MB/國語/粵語/中字][FSC]空間下載
[無碼][1994][香港][三級][青樓十二房][DVDRip-MKV/397MB/國語/粵語/中字][FSC]空間下載
【影片名稱】:青樓十二房
【英文名稱】:Ancient Chinese Whorehouse
【年  代】:1994
【國  家】:中國香港
【影片類型】:香港經典三級 / 古裝 
【影片尺寸】:720 x 400
【影片時間】:01:38:10
【影片大小】:1.60 GB
【影片格式】:MKV 
【有/無碼】:無碼 (片內無礙眼浮水印)
【字 幕】:繁體中文
【語 言】:國語(漢語普通話)/粵語
【分享空間】:FSC 空間下載
【上傳日期】:2011年10月30日
【有效日期】:檔案如果無法下載請E-mail通知發帖者後,將會盡快處理。E-mail:user8818@gmail.com
【影片尺度】:三級 
【導  演】:黎繼明 Kai Ming Lai
【上映日期】:1994年9月15日 片長:96分鐘
【出 品】:香港英皇影業有限公司 
【影片演員】:翁虹(五姑娘)、鄭則仕(剛哥)、劉的之(丁逸)、徐錦江(採花賊)、程雪雁(小青) 、成奎安(捕快) 、吳妙儀 等...
【檔案數目】:2 
【劇情簡介】:
時代背景為盛唐之年,當時人民生活富庶,青樓事業大行其道;於是乎,同業間為了競爭求存,奇招百出,當中著名的「嘗樂坊」乃五姑娘(翁虹)主持大局,並伙拍設計木匠師傅剛哥(鄭則仕)以獨特的性器具及淫樂房間而響負盛名。一直以來,剛哥對樓主五姑娘早存愛意,無奈五姑娘對他總是若即若離。阿逸(劉的之)自小跟隨師父剛哥在青樓工作,為人憨厚,對因生活所逼賣入嘗樂坊的雛妓小菁(程雪雁)深深同情並心存好感,並在陰差陽錯下,在小菁破紅之夜採了元紅,隨後二人展開苦戀。有新開青樓大搶貨源,其紅牌名喚波斯貓(番邦女子)在公雞床上戰無不勝,並嘲弄本土嫖眾。五姑娘力遣阿逸解困,阿逸得剛哥陽藥,大戰波斯貓並將其帶回,嘗樂坊遂名聲更盛。色魔(徐錦江)現身青樓大肆劫女採花,當某夜劫小菁時,被五姑娘趕到並勇救小菁,但五姑娘不慎敗於色魔並被其強姦。色魔欲殺五姑娘,小菁趕到急助,五姑娘重傷色魔,色魔落水失蹤。不久五姑娘得知色魔原來大有來頭,為避殺禍,五姑娘拿出青樓所有積蓄,散發給眾姑娘,遣散嘗樂坊,也成全了阿逸和小菁,最後更是和剛哥一起試遍嘗樂坊所有淫具。
◎影片點評
多數古裝香港三級片都無法做到像青樓十二房這樣的色情輕喜劇,雖然劇情很簡單,不過影片當中關於男性陽具的創意設計為日後的玉蒲團之玉女心經甚至更往後的玉蒲團之官人我要提供靈感,這也是青樓十二房最受觀眾喜愛的地方。尤其是那個外國美女的「公雞床」更是讓人過目不忘。從這個角度上說,它和滿清十大酷刑是一樣的套路。嘗樂坊出現色魔(徐錦江)搶劫事件,先強姦嘗樂坊妓女之後,被五姑娘發現,二人展開一場打鬥,五姑娘落敗,被色魔強姦,完事後色魔欲殺死五姑娘,幸得剛哥趕到,與五姑娘攜手製服色魔,但色魔未死逃出。 五姑娘遂拿出所有家財,散發給眾姑娘,遣散嘗樂坊,也成全了阿逸和小菁,最後更是和剛哥一起試遍嚐樂坊所有淫具。

※截圖如下※


※KMPlayer 截圖如下※ 

※影片格式資訊※
General
Complete name : 翁虹 徐錦江\青樓十二房.Ancient.Chinese.Whorehouse.1994.DVDRip.x264.AC3.2Audios.mkv
Format : Matroska
File size : 1.60 GiB
Duration : 1h 36mn
Overall bit rate : 2 375 Kbps
Writing application : mkvmerge v3.4.0 ('Rapunzel')
Writing library : libebml v0.8.0 + libmatroska v0.9.0
Video #1
ID : 1
Format : AVC
Format/Info : Advanced Video Codec
Format profile : High@L4.1
Format settings, CABAC : Yes
Format settings, ReFrames : 4 frames
Muxing mode : Container profile=Unknown@4.1
Codec ID : V_MPEG4/ISO/AVC
Duration : 1h 36mn
Bit rate : 1 688 Kbps
Nominal bit rate : 1 733 Kbps
Width : 720 pixels
Height : 400 pixels
Display aspect ratio : 16:9
Frame rate : 23.976 fps
Resolution : 24 bits
Colorimetry : 4:2:0
Scan type : Progressive
Bits/(Pixel*Frame) : 0.244
Stream size : 1.13 GiB (71%)
Writing library : x264 core 98 r1649 c54c47d
Encoding settings : cabac=1 / ref=3 / deblock=1:0:0 / analyse=0x3:0x113 / me=hex / subme=7 / psy=1 / psy_rd=1.00:0.00 / mixed_ref=1 / me_range=16 / chroma_me=1 / trellis=1 / 8x8dct=1 / cqm=0 / deadzone=21,11 / fast_pskip=1 / chroma_qp_offset=-2 / threads=3 / sliced_threads=0 / nr=0 / decimate=1 / interlaced=0 / constrained_intra=0 / bframes=3 / b_pyramid=2 / b_adapt=1 / b_bias=0 / direct=1 / weightb=1 / weightp=2 / keyint=250 / keyint_min=25 / scenecut=40 / intra_refresh=0 / rc_lookahead=40 / rc=2pass / mbtree=1 / bitrate=1733 / ratetol=1.0 / qcomp=0.60 / qpmin=10 / qpmax=51 / qpstep=4 / cplxblur=20.0 / qblur=0.5 / ip_ratio=1.40 / aq=1:1.00
Language : Chinese
Audio #2
ID : 2
Format : AC-3
Format/Info : Audio Coding 3
Codec ID : A_AC3
Duration : 1h 36mn
Bit rate mode : Constant
Bit rate : 320 Kbps
Channel(s) : 2 channels
Channel positions : L R
Sampling rate : 48.0 KHz
Stream size : 220 MiB (13%)
Title : 國語
Language : Chinese
Audio #3
ID : 3
Format : AC-3
Format/Info : Audio Coding 3
Codec ID : A_AC3
Duration : 1h 36mn
Bit rate mode : Constant
Bit rate : 320 Kbps
Channel(s) : 4 channels
Channel positions : Front: L R, Surround: C, LFE
Sampling rate : 48.0 KHz
Stream size : 220 MiB (13%)
Title : 粵語
Language : Chinese
Text #4
ID : 4
Format : ASS
Codec ID : S_TEXT/ASS
Codec ID/Info : Advanced Sub Station Alpha
Language : 中上英下Chinese

下載教學步驟一:
進入下載畫面之後,移動到網頁右下方你會看到"普通下載"的按鈕,選擇按下"普通下載"等一下下會出現識別碼,依照顯示的識別碼輸入即可。

下載教學步驟二:
移動到網頁右上方你會看到倒數的秒數出現,等待秒數完成後按下"普通下載"即可下載。

PS:如果識別碼不清楚可以選擇更新輸入後確定等待約20秒即可下載,下載點不支援 訊雷、快車、BT..等等續傳軟體,請使用IE瀏覽器下載。

下載教學網頁圖片請點這裡
KMPlayer 影音播放軟體 (無所不播無所不放安裝版) → 下載點這裡
FileServe空間下載 Mipony 1.2.2免費空間下載加速工具 下載地址 → 下載點這裡
xun6空間下載 Mipony 1.2.2免費空間下載加速工具 下載地址 → 下載點這裡
------------------------------------------------------------------------------------------------------------------------------------
-== 1994 青樓十二房 Ancient Chinese Whorehouse HD-DVDRip-WMV [480P] ==-
------------------------------------------------------------------------------------------------------------------------------------
掛機網賺 20dollars2surf,全自動衝浪掛機也可賺錢 ※內附完整教學圖※

點擊此處註冊後可以免費得到一個750GB的空間獲得高速下載通道:
X-Rated Movie Download-Folder Link
http://www.filesonic.tw/folder/9b0f90afe6c96f9b1
HD-DVDRip-MKV [480P]
青樓十二房 Ancient Chinese Whorehouse Folder Link
http://www.filesonic.com/file/2820962095/Ancient.Chinese.Whorehouse.1994.DVDRip.x264.AC3.2Audios.A.mkv
http://www.filesonic.com/file/2820925705/Ancient.Chinese.Whorehouse.1994.DVDRip.x264.AC3.2Audios.B.mkv
------------------------------------------------------------------------------------------------------------------------------------
要一次下載多個檔案,可以在網路上尋找中轉站下載 各大中轉站的下載速度250K~3M不等(/S每秒下載速度)

點擊此處注冊後可以免費得到一個500GB的空間獲得高速下載通道: 
其它香港三級片下載點這裡
WU FS FSC等等..各大免費下載空間獲取白金高級會員帳號的高速下載使用教學
破解免費空間下載時間限制(適用於多個免空)
其他港劇下載點這裡
其分割檔可以使用HJSplit 2.3工具合併
Winrar 繁體中文免安裝版(壓縮解壓縮工具軟體)

※wupload下載教學※


Q:我完全不能下載檔案!這是怎麼回事?
A:如果您沒有FileSonic高級帳戶,某些限制可能會阻止您下載:我們不允許同一個IP位址進行並行下載,同時也限制了某個時間段內您可以從我們伺服器下載的資料總量。如果您與其他FileSonic使用者共用您的IP位址(例如,因為您的網際網路服務提供商使用代理伺服器或NAT),則他們的活動可能會對您產生不利的影響。
Q:我應該使用哪種下載管理器?
A:為了用下載管理器獲得最佳的體驗,我們建議使用最新版本的JDownloader。您可以從這裡 免輸入驗證碼JDownloader中文版下載 免費下載獲得
免輸入驗證碼JDownloader中文版下載
免輸入驗證碼JDownloader中文版下載

, ,

Posted by ☜♥☞阿德 at 痞客邦 PIXNET 留言(0) 引用(0) 人氣()