[黃秋生][香港][三級][伊波拉病毒][DVDRip-AVI/700MB/粵語/中字][FSC]空間下載
[無碼][1996][香港][三級][伊波拉病毒][DVDRip-AVI/700MB/粵語/中字][FSC]空間下載
【影片名稱】:伊波拉病毒
【英文名稱】:Ebola Syndrome
【年  代】:1996
【國  家】:中國香港
【影片類型】:香港經典三級 / 恐怖 / 驚悚 
【影片尺寸】:838 x 576
【影片時間】:01:39:52
【影片大小】:700MB
【影片格式】:AVI 
【有/無碼】:無碼 (片內無礙眼浮水印)
【字 幕】:繁體中文
【語 言】:粵語
【分享空間】:FSC 空間下載
【上傳日期】:2011年10月30日
【有效日期】:檔案如果無法下載請E-mail通知發帖者後,將會盡快處理。E-mail:user8818@gmail.com
【影片尺度】:三級 
【導  演】:
【上映日期】:
【出 品】:
【影片演員】:黃秋生、成奎安 等... 
【檔案數目】:1 
【劇情簡介】:
  《伊波拉病毒》與《人肉叉燒包》應該是一脈相承的。因為跟一個黑社會老大(成奎安飾)的女人偷情,東窗事發後,黃秋生為求自保,將成奎安及他的女人一起殺掉,並焚屍滅跡。 
  之後,黃秋生辦了一個假護照,潛逃到了在非洲某小國開餐館的表哥家。表哥開的是中餐館,專賣叉燒包,為了尋求更便宜的豬肉,黃秋生與表哥去某原始部落採購生豬。結果,在採購途中黃秋生強姦了病倒在湖邊的部落婦女,他不知道,該婦女已經感染了可怕的伊波拉病毒。 
  接下來的情節,幾乎就是《人肉叉燒包》的翻版了,表嫂厭惡黃秋生的好吃懶做,黃秋生則見色起意,強姦了表嫂,並順勢殺掉了表哥,然後將屍體剁成肉餡,做成幾籠叉燒包,最後再將餐館賣掉,重新返回香港。 
  也不知道是幸運還是不幸運,儘管黃秋生感染了伊波拉病毒,但由於體內天生具備病毒抗體,他的病沒能發作。不過,凡是與他有過親密接觸的人,都感染上了病毒,且最後都病發身亡。 

※截圖如下※






※KMPlayer 截圖如下※ 

※影片格式資訊※
General
Complete name : 黃秋生.伊波拉病毒.Ebola.Syndrome.1996.iNT.DVDRip.XviD.avi
Format : AVI
Format/Info : Audio Video Interleave
File size : 701 MiB
Duration : 1h 39mn
Overall bit rate : 981 Kbps
Writing application : VirtualDubMod 1.5.4.1 (build 2178/release)
Writing library : VirtualDubMod build 2178/release
Video #0
ID : 0
Format : MPEG-4 Visual
Format profile : Simple@L3
Format settings, BVOP : Yes
Format settings, QPel : No
Format settings, GMC : No warppoints
Format settings, Matrix : Default (H.263)
Codec ID : XVID
Codec ID/Hint : XviD
Duration : 1h 39mn
Bit rate : 840 Kbps
Width : 576 pixels
Height : 304 pixels
Display aspect ratio : 1.895
Frame rate : 29.970 fps
Resolution : 24 bits
Colorimetry : 4:2:0
Scan type : Progressive
Bits/(Pixel*Frame) : 0.160
Stream size : 600 MiB (86%)
Writing library : XviD 0.0.09 (UTC 2003-03-25)
Audio #1
ID : 1
Format : MPEG Audio
Format version : Version 1
Format profile : Layer 3
Codec ID : 55
Codec ID/Hint : MP3
Duration : 1h 39mn
Bit rate mode : Variable
Bit rate : 126 Kbps
Nominal bit rate : 128 Kbps
Channel(s) : 2 channels
Sampling rate : 48.0 KHz
Resolution : 16 bits
Stream size : 90.3 MiB (13%)
Alignment : Aligned on interleaves
Interleave, duration : 24 ms (0.72 video frame)
Interleave, preload duration : 504 ms
Writing library : LAME3.90.
Encoding settings : -m j -V 4 -q 2 -lowpass 17.6 --abr 128

下載教學步驟一:
進入下載畫面之後,移動到網頁右下方你會看到"普通下載"的按鈕,選擇按下"普通下載"等一下下會出現識別碼,依照顯示的識別碼輸入即可。

下載教學步驟二:
移動到網頁右上方你會看到倒數的秒數出現,等待秒數完成後按下"普通下載"即可下載。

PS:如果識別碼不清楚可以選擇更新輸入後確定等待約20秒即可下載,下載點不支援 訊雷、快車、BT..等等續傳軟體,請使用IE瀏覽器下載。

下載教學網頁圖片請點這裡
KMPlayer 影音播放軟體 (無所不播無所不放安裝版) → 下載點這裡
FileServe空間下載 Mipony 1.2.2免費空間下載加速工具 下載地址 → 下載點這裡
xun6空間下載 Mipony 1.2.2免費空間下載加速工具 下載地址 → 下載點這裡
------------------------------------------------------------------------------------------------------------------------------------
-== 1996 伊波拉病毒 Ebola SyndromeHD-DVDRip-WMV [480P] ==-
------------------------------------------------------------------------------------------------------------------------------------
掛機網賺 20dollars2surf,全自動衝浪掛機也可賺錢 ※內附完整教學圖※

點擊此處註冊後可以免費得到一個750GB的空間獲得高速下載通道:
X-Rated Movie Download-Folder Link
http://www.filesonic.tw/folder/9b0f90afe6c96f9b1
HD-DVDRip-MKV [480P]
伊波拉病毒 Ebola Syndrome Folder Link
http://www.filesonic.com/file/2820321165/Ebola.Syndrome.1996.iNT.DVDRip.XviD.avi
伊波拉病毒.Ebola.Syndrome.1996 字幕檔下載
------------------------------------------------------------------------------------------------------------------------------------
要一次下載多個檔案,可以在網路上尋找中轉站下載 各大中轉站的下載速度250K~3M不等(/S每秒下載速度)

點擊此處注冊後可以免費得到一個500GB的空間獲得高速下載通道: 
其它香港三級片下載點這裡
WU FS FSC等等..各大免費下載空間獲取白金高級會員帳號的高速下載使用教學
破解免費空間下載時間限制(適用於多個免空)
其他港劇下載點這裡
其分割檔可以使用HJSplit 2.3工具合併
Winrar 繁體中文免安裝版(壓縮解壓縮工具軟體)

※wupload下載教學※


Q:我完全不能下載檔案!這是怎麼回事?
A:如果您沒有FileSonic高級帳戶,某些限制可能會阻止您下載:我們不允許同一個IP位址進行並行下載,同時也限制了某個時間段內您可以從我們伺服器下載的資料總量。如果您與其他FileSonic使用者共用您的IP位址(例如,因為您的網際網路服務提供商使用代理伺服器或NAT),則他們的活動可能會對您產生不利的影響。
Q:我應該使用哪種下載管理器?
A:為了用下載管理器獲得最佳的體驗,我們建議使用最新版本的JDownloader。您可以從這裡 免輸入驗證碼JDownloader中文版下載 免費下載獲得
免輸入驗證碼JDownloader中文版下載
免輸入驗證碼JDownloader中文版下載

, , ,

☜♥☞阿德 發表在 痞客邦 PIXNET 留言(0) 人氣()