辛亥革命 Xin Hai Ge Ming 李冰冰、成龍、趙文瑄 主演 高清DVD-RMVB國語中字【FS WU】
2011《辛亥革命 Xin Hai Ge Ming》高清DVD-RMVB國語中字【FS WU】
【劇 名】:辛亥革命
【英 名】:Xin Hai Ge Ming
【譯 名】:1911 
【年 代】:2011
【地 區】:中國
【類 型】:歷史 / 戰爭 / 劇情
【語 言】:國語 漢語普通話
【字 幕】:中文
【尺 寸】:852 x 480
【片 長】:02:00:31
【格 式】:RMVB-H.264 Audio:RA
【格 式】:RMVB
【容 量】:608.7 MB
【上 映】:2011年9月23日
【發 行】:上海東方影視發行有限責任公司 / 北京耀萊國際文化產業有限公司 
【導 演】:張黎,成龍 
【監 製】:汪天雲,畢述林,王浙濱
【編 劇】:王興東,陳寶光 
【主 演】:趙文瑄,李冰冰,成龍,姜武,黃志忠,孫淳
【官方網站】:http://www.neweast-sfg.com/
【維基百科】:http://zh.wikipedia.org/wiki/%E8%BE%9B%E4%BA%A5%E9%9D%A9%E5%91%BD_(%E7%94%B5%E5%BD%B1)







※劇情簡介※
晚清末年,內憂外患,中華民族到了危亡之際。改良派維新變法運動的失敗,孫中山為首的革命派,決心以革命推翻清,建立共和體制。
  1895到1910年,革命黨人先後發動了多次起義,秋瑾、徐錫麟等一批革命黨先驅先後犧牲,革命陷入低潮。
  1910年底,孫中山再次在海外召集同盟會骨幹,組織力量准在廣州發動起義黃興與徐宗漢假扮夫婦,秘密潛入廣州。然而廣州之戰終因革命黨人寡不敵眾而告負,林覺民等一大批革命骨幹壯烈犧牲,黃興也身負重傷。徐宗瀚等冒死收葬了烈士遺體72具,葬於廣州城外的黃花崗。
  經過這次的起義,清電影下載對革命黨人進行了血腥鎮壓,同時積極尋求與帝國主義的賣國交易。
  在四川,清廷又一次喪權辱國的行為,引發了轟轟烈烈的保路運動,湖北新軍被緊急抽調前去鎮壓。在武昌,新軍當中的革命黨名單洩漏,湖廣總督瑞澂開始對名單上的革命黨人逐一捕殺,革命形勢十分危急,革命黨人熊... (展開全部)晚清末年,內憂外患,中華民族到了危亡之際。改良派維新變法運動的失敗,孫中山為首的革命派,決心以革命推翻清電影下載,建立共和體制。
  1895到1910年,革命黨人先後發動了多次起義,秋瑾、徐錫麟等一批革命黨先驅先後犧牲,革命陷入低潮。
  1910年底,孫中山再次在海外召集同盟會骨幹,組織力量准在廣州發動起義黃興與徐宗漢假扮夫婦,秘密潛入廣州。然而廣州之戰終因革命黨人寡不敵眾而告負,林覺民等一大批革命骨幹壯烈犧牲,黃興也身負重傷。徐宗瀚等冒死收葬了烈士遺體72具,葬於廣州城外的黃花崗。
  經過這次的起義,清電影下載對革命黨人進行了血腥鎮壓,同時積極尋求與帝國主義的賣國交易。
  在四川,清廷又一次喪權辱國的行為,引發了轟轟烈烈的保路運動,湖北新軍被緊急抽調前去鎮壓。在武昌,新軍當中的革命黨名單洩漏,湖廣總督瑞澂開始對名單上的革命黨人逐一捕殺,革命形勢十分危急,革命黨人熊秉坤、金兆龍等憤然打響了革命第一槍。經過一夜激戰,武昌起義的革命軍攻占了總督府,黎元洪被革命軍將士緊急推為軍電影下載都督。
  武昌起義成功,舉國震驚,消息傳到美國,孫中山和同盟會成員歡欣鼓舞。立即派黃興和徐宗漢趕到武昌戰場,大大振奮了革命軍士氣。不惜以熱血和生命保衛飄揚著革命紅旗的武漢三鎮。經過這麼多血與火的洗禮,黃興和徐宗漢的感情不斷昇華,兩人決定結為革命夫妻繼續比肩戰鬥。
  風雨飄渺的清廷只好請袁世凱出山,率北洋軍鎮壓革命。袁世凱一方面鎮壓革命軍,另一方面仍試圖在各方勢力的博弈中,暗地里通過革命黨人汪精衛傳達與革命黨和談的願望。
  革命的危急關頭,孫中山奔赴海外,力排眾議,最終說服西方列國財團,不再藉貸款支持清廷。
  陽夏保衛戰打得異常慘烈,黃興和黎元洪艱難支撐,在各種反動勢力的夾擊下,黃興毅然決定率部撤往長江下游,集聚力量,以圖大業。
  長江戰艦在行進中,傳來了多省宣布獨立的消息,黃興等備受鼓舞。
  自此,革命形勢進入了南北對峙的局面,經過多方努力,南北代表唐紹儀和伍廷芳終於坐下來會談,經過艱難談判,雙方達成共識,支持建立共和政體;經過十八省代表的公開民主選舉,孫中山被推選為首任大總統。孫中山表示,只要袁世凱敦促清帝退位,他即可讓位,由逼退清讓位的人,出任中華民國大總統。
  辛亥革命,中華民族付出了巨大的代價,結束了兩千八百年的封建統治;開創了亞洲第一個共和體制;寫下了人類社會民主主義的新篇章!更向世人展示了一個真理:歷史的潮流浩浩蕩盪,不可阻擋;順其者昌,逆其者亡。未來,充滿著革命的因素和希望。   

※劇  照※

※截  圖※

※影片格式資訊※
General
Complete name : 2011.辛亥革命.XinHaiGeMing-DVDsrc.rmvb
Format : RealMedia
File size : 608 MiB
Duration : 2h 0mn
Overall bit rate : 698 Kbps
Video #0
ID : 0
Format : RealVideo 4
Codec ID : RV40
Codec ID/Info : Based on AVC (H.264), Real Player 9
Duration : 2h 0mn
Bit rate : 602 Kbps
Width : 852 pixels
Height : 480 pixels
Display aspect ratio : 16:9
Frame rate : 29.000 fps
Resolution : 12 bits
Bits/(Pixel*Frame) : 0.051
Stream size : 519 MiB (85%)
Audio #1
ID : 1
Format : Cooker
Codec ID : cook
Codec ID/Info : Based on G.722.1, Real Player 6
Duration : 2h 0mn
Bit rate : 96.5 Kbps
Channel(s) : 2 channels
Sampling rate : 44.1 KHz
Resolution : 16 bits
Stream size : 83.2 MiB (14%)

下載教學步驟一:
進入下載畫面之後,移動到網頁右下方你會看到"普通下載"的按鈕,選擇按下"普通下載"等一下下會出現識別碼,依照顯示的識別碼輸入即可。

下載教學步驟二:
移動到網頁右上方你會看到倒數的秒數出現,等待秒數完成後按下"普通下載"即可下載。

PS:如果識別碼不清楚可以選擇更新輸入後確定等待約20秒即可下載,下載點不支援 訊雷、快車、BT..等等續傳軟體,請使用IE瀏覽器下載。

下載教學網頁圖片請點這裡
KMPlayer 影音播放軟體 (無所不播無所不放安裝版)→ 下載點這裡
FileServe◎Mipony 1.2.2免費空間下載加速工具 地址→ 下載點這裡
xun6◎Mipony 1.2.2免費空間下載加速工具 地址→ 下載點這裡
------------------------------------------------------------------------------------
2011《辛亥革命 Xin Hai Ge Ming》高清DVD-RMVB國語中字【FS WU】
------------------------------------------------------------------------------------ 
掛機網賺 20dollars2surf,全自動衝浪掛機也可賺錢 ※內附完整教學圖※
分割檔可以使用HJSplit 2.3工具合併
HJSplit 2.3 檔案分割、合併、比對 繁體中文免安裝版 下載地址→
下載點這裡

HDTV-720P [RMVB]
《2011 辛亥革命 Xin Hai Ge Ming》下載連結資料夾:

點擊此處註冊後可以免費得到一個750GB的空間獲得高速下載通道:
2011 辛亥革命 Xin Hai Ge Ming.rmvb 下載點這裡
Folder link: http://www.wupload.com/folder/21135494d50fa1843
------------------------------------------------------------------------------------ 

點擊此處注冊後可以免費得到一個500GB的空間獲得高速下載通道: 
其它香港三級片下載點這裡

WU FS 等等..各大免費下載空間獲取白金高級會員帳號的高速下載使用教學

破解免費空間下載時間限制(適用於多個免空)

其他港劇下載點這裡

分割檔可以使用HJSplit 2.3工具合併

※wupload下載教學※

, , , , , ,

☜♥☞阿德 發表在 痞客邦 PIXNET 留言(0) 人氣()