2010年TVB最新熱播劇集《談情說案 The Mysteries of Love》【高清TV國粵雙語中字】FS WU
【劇 名】:談情說案
【英 名】:The Mysteries of Love
【編 劇】:黃育德、梁敏華、阮美鳳、林少枝、冼翠貞、黃佩珊、霍婉君、吳鎮宇、石凱婷、雷秀蓮
【編 導】:關樹明、伍兆榮、黃偉賢、陳湘娟
【助理編導】:杜文鋒、黎兆傑、隋 欣、謝沛然、張永輝
【製作統籌】:羅婉霞
【監 制】:劉家豪
【編 審】:黃育德、梁敏華
【製 作】:2009年7月-10月
【播出日期】:2010年5月24日-2010年6月25日
【首播日期】:2010年5月24日
【播出時間】:逄星期一至五 21:30-22:30 無綫電視翡翠台/高清翡翠台
【類 型】:時裝偵探查案劇
【製 作】:香港電視廣播有限公司 
【集 數】:25集(每集45分鐘)
【接 檔】:飛女正傳←→上一檔:5月22日 / 下一檔:6月28日 ←→ 情越雙白線
【主 演】:林峯 (飾景博), 楊怡 (飾徐小麗), 馬國明 (飾盧天恒), 廖碧兒 (飾凌敏嘉), 羅樂林 (飾徐漢飛), 麥長青 (飾徐國安), 林子善 (飾徐國良), 李國麟 (飾景然), 李成昌 (飾文柏柱), 陳芷菁 (飾古玉嬌)
【語 言】:粵語/國語
【字 幕】:繁體中文
【格 式】:MKV
【影片大小】:405 MB
【官方網站】:點擊此處瀏覽連結http://programme.tvb.com/drama/themysteriesoflove
【維基百科】:點擊此處瀏覽連結http://zh.wikipedia.org/wiki/談情說案
【播 放】:高清播放與具體劇情介紹 

點擊此處在新視窗瀏覽實際大小的圖片

點擊此處在新視窗瀏覽實際大小的圖片

劇情簡介:
景博與徐小麗是切切實實兩個世界的人,景博出身名門望族,講求教養,出落優雅;而居於油麻地的小麗,是典型草根,家庭背景已是天壤之別。再說景博是天才物理學家,少數這麼年青便成為大學副教授,小麗只是預科畢業生,兩者的教育水平實在差距很大。最重要的是,景博極度理性、凡事追求邏輯,小麗雖身為警察,但喜歡憑感性、講直覺,兩者極端非常。究竟景博與小麗將如何交纏發展一段浪漫的愛情故事?其中又穿插了甚麼懸疑奇案呢?
  
談情說案
小麗受到父親漢飛的影響,理所當然地認為將來的理想對象,必須是一個能夠保護自己的「真男人」。至於那位孱弱書生景博,小麗根本不會視之為理想人選之列。另一方面,景博一心希望遇到一位明白他、體諒他的人,能等待他完成研究是最起碼的要求。他理想的女孩形象,是有著高學歷,高貴但不失溫柔,包容而又和善的女子,同樣不會視小麗為理想對象。然而一次追查案件中,小麗與景博於深山迷路,幸得景博處變不驚,冷靜運用知識智慧將小麗帶出險境。原來「真男人」不一定是「孔武有力」,一個像景博那樣滿有智慧之人也能託付終生!
後來,小麗的二哥國良遇上撞車事件,景博從百忙之中抽空為國良做實驗、計數據,過程中,小麗再次獲得與景博獨處一晚的機會,令小麗對景博多了點少女情懷的遐想。最後,實驗證明了國良的無辜,令其勝訴。為此,小麗與國良大費周章地要在高級食肆宴請景博,而景博卻臨時被邀請出席另一個重要約會,小麗非常失望。而於這刻小麗亦驀然驚覺,之前不知不覺對景博多了丁點兒的遐想是不應該的,遂決定回歸油麻地,才是真正屬於她的世界。
之後,大哥國安因對兒子家希考名校失望,歸究自己沒出息,遂興起競投大學餐廳的念頭,卻遭到家人反對。然而,小麗獨排眾議支持國安。競投成功後,小麗不時到來幫忙國安打點餐廳的工作,令小麗多了與景博見面的機會,然而神女已無心,小麗待景博只是普通朋友。

「苯氨基丙酸」作用
從小麗支持二哥國良堅持公義的事,到出錢出力支持大哥國安創業,還有因油畫穿梭景、徐兩家調停而受盡委屈,景博逐漸看到小麗的好。及後,景博發表的一篇論文惹起使用虛假數據風波,令他的論文受到科學界的質疑,甚至會有聲名盡損、從此消失科學界的可能,必須要在極短時間內找來新數據證明論文的準確性,雖然小麗於論文方面幫不上忙,但是在景博工作至三更半夜、筋疲力竭之時,還有小麗送來一碗熱騰騰的麵,已經令他再度注滿力量,繼續衝刺。不知不覺間,小麗夜留餐廳默默送上熱麵的支持,已成為景博的重要動力。
最後,景博以驚人的能耐與魄力,於限定時間之內證明出論文的真確性及其重要價值,獲得科學界的再度肯定。自此,景博開始感受到微妙的變化,那碗麵的暖意在他心頭久久不散的感覺,告訴他已不自覺地對小麗牽起了感情。理性的景博從來分析愛情只是人體大腦分泌出一種名為「苯氨基丙酸」的內激素作怪,產生令人有戀愛感覺的生理反應而已。正因如此,這刻的景博很清楚地知道自己體內的「苯氨基丙酸」正在令他對小麗產生愛意。對科學的追求毫不猶疑、全力以赴的景博,當發覺內心所愛,也是選擇坦誠相向,對早已放下對景博愛意的小麗,說出愛的宣言。

戀愛危機
「苯氨基丙酸」對景博及小麗產生作用,卻影響不到他倆身邊的人,甜蜜的拍拖生活隱藏著許多危機。
小麗的父母兄嫂對她疼愛有加,為了她學習做個上等人,結果當然是適得其反,甚至成為笑柄,一家人不開心之餘,更添小麗的壓力。另一方面,以為愛情是兩個人的事的景博,漸漸受到父母的壓力,同時看見小麗繼續委屈地討好兩家,也感到身不由己的煩惱。理性的景博抽離愛情的感覺,分析與小麗之間的狀況,認為現實處境難以改變,他與小麗必須要面對雙方家庭的壓力,有很大可能難以承受,與其辛苦地維繫,倒不如冷靜地、清晰地解決問題,認為最可行的方法是理性地分手。
小麗別無選擇地接受了景博的分手要求,並諒解他所謂理性分析,但感性的她依然奢望著能夠努力地去改變事實。可是單方面的努力只是徒然,換回來的只有被認為在死纏爛打,被嘲笑為不要面子地高攀豪門。與此同時,景博不但沒有對小麗送上半點安慰與問候,竟還硬著心腸地認為小麗不應該感情用事,令小麗受到深深的傷害。至此,小麗對景博徹底失望,為了不再見景博而調至公共關係科。尤幸在傷心痛苦的時候,家庭的溫暖令受傷的小麗慢慢得以痊癒,很快地收拾心情,重投生活,繼續熱愛家人,積極工作。

重新開始
一切歸於平靜,小麗與景博在各自的世界精彩。期間,景博認識了一位在父母眼中門當戶對、高貴大方,被認為難得絕配的好女子─蔡寶兒。初時,景博與寶兒相處愉快,感覺良好,但漸漸發現寶兒高貴外表的背後卻是尖酸勢利、內心醜陋,尤其當景博洞悉寶兒暗地對小麗的侮辱,感到非常憤怒,拒絕再與之發展下去。與此同時,景博亦發現對小麗的感覺仍然存在,愈與她分隔得久,愈發覺對小麗的思念。
這時,一科學高手向景博挑戰,更牽連至景博家人。此事件中,不但令景博的家人明白千金小姐不等於好女子,終了解到小麗的好,更令景博清楚知道,心中最愛的,原來一直只有小麗一人。此時的景博,不但要施展渾身解數智鬥高手,更要重新追回小麗。然而,小麗的心已被景博狠狠地傷害了,景博能把小麗那破碎的心修補過來嗎?

人物關係圖↓
點擊此處在新視窗瀏覽實際大小的圖片

點擊此處瀏覽連結※人物詳細介紹※

點擊此處瀏覽連結※精采片段影片※

※劇  照※ 
點擊此處在新視窗瀏覽實際大小的圖片

點擊此處在新視窗瀏覽實際大小的圖片

點擊此處在新視窗瀏覽實際大小的圖片

※截  圖※
點擊此處在新視窗瀏覽實際大小的圖片
※影片格式資訊※
General
Complete name : 談情說案.TVB.2010.The.Mysteries.of.Love.01.mkv
Format : Matroska
File size : 405 MiB
Duration : 43mn 48s
Overall bit rate : 1 292 Kbps
Movie name : 01
Encoded date : UTC 2010-06-24 11:29:36
Writing application : mkvmerge v2.9.0 ('Moanin'') built on May 22 2009 17:46:31
Writing library : libebml v0.7.7 + libmatroska v0.8.1
Video #2
ID : 2
Format : AVC
Format/Info : Advanced Video Codec
Format profile : High@L4.0
Format settings, CABAC : Yes
Format settings, ReFrames : 3 frames
Muxing mode : Container profile=Unknown@4.0
Codec ID : V_MPEG4/ISO/AVC
Duration : 43mn 46s
Bit rate : 1 075 Kbps
Nominal bit rate : 1 100 Kbps
Width : 720 pixels
Height : 540 pixels
Display aspect ratio : 4:3
Frame rate : 29.970 fps
Resolution : 24 bits
Colorimetry : 4:2:0
Scan type : Progressive
Bits/(Pixel*Frame) : 0.092
Stream size : 336 MiB (83%)
Writing library : x264 core 68 r1195M 5d75a9b
Encoding settings : cabac=1 / ref=3 / deblock=1:0:0 / analyse=0x3:0x133 / me=umh / subme=7 / psy_rd=1.0:0.0 / mixed_ref=1 / me_range=16 / chroma_me=1 / trellis=1 / 8x8dct=1 / cqm=0 / deadzone=21,11 / chroma_qp_offset=-2 / threads=3 / nr=0 / decimate=1 / mbaff=0 / bframes=3 / b_pyramid=0 / b_adapt=1 / b_bias=0 / direct=3 / wpredb=1 / keyint=300 / keyint_min=30 / scenecut=40 / rc=2pass / bitrate=1100 / ratetol=1.0 / qcomp=0.60 / qpmin=10 / qpmax=51 / qpstep=4 / cplxblur=20.0 / qblur=0.5 / vbv_maxrate=25000 / vbv_bufsize=25000 / ip_ratio=1.40 / pb_ratio=1.30 / aq=1:1.00
Audio #3
ID : 3
Format : AC-3
Format/Info : Audio Coding 3
Codec ID : A_AC3
Duration : 43mn 48s
Bit rate mode : Constant
Bit rate : 192 Kbps
Channel(s) : 2 channels
Channel positions : L R
Sampling rate : 48.0 KHz
Stream size : 60.2 MiB (15%)
Text #1
ID : 1
Format : SSA
Codec ID : S_TEXT/SSA
Codec ID/Info : Sub Station Alpha

下載教學步驟一:
進入下載畫面之後,移動到網頁右下方你會看到"普通下載"的按鈕,選擇按下"普通下載"等一下下會出現識別碼,依照顯示的識別碼輸入即可。

下載教學步驟二:
移動到網頁右上方你會看到倒數的秒數出現,等待秒數完成後按下"普通下載"即可下載。

PS:如果識別碼不清楚可以選擇更新輸入後確定等待約20秒即可下載,下載點不支援 訊雷、快車、BT..等等續傳軟體,請使用IE瀏覽器下載。

點擊此處瀏覽連結下載教學網頁圖片請點這裡
KMPlayer 影音播放軟體 (無所不播無所不放安裝版)→ 點擊此處瀏覽連結下載點這裡
FileServe◎Mipony 1.2.2免費空間下載加速工具 地址→ 點擊此處瀏覽連結下載點這裡
xun6◎Mipony 1.2.2免費空間下載加速工具 地址→ 點擊此處瀏覽連結下載點這裡
------------------------------------------------------------------------------------
2010年TVB最新熱播劇集《談情說案 The Mysteries of Love》【720P TV粵語中字】
------------------------------------------------------------------------------------
點擊此處瀏覽連結掛機網賺 20dollars2surf,全自動衝浪掛機也可賺錢 點擊此處瀏覽連結※內附完整教學圖※
點擊此處在新視窗瀏覽實際大小的圖片
點擊此處在新視窗瀏覽實際大小的圖片
點擊此處瀏覽連結點擊此處註冊後可以免費得到一個750GB的空間獲得高速下載通道:
HDTV-720P [RMVB]
-== 談情說案 The Mysteries of Love 第01集至25集[Episode 01 / Episode 25] 下載連結資料夾 ==-
點擊此處在新視窗瀏覽實際大小的圖片Folder link:點擊此處瀏覽連結http://www.wupload.com/folder/859251
點擊此處在新視窗瀏覽實際大小的圖片Folder link:點擊此處瀏覽連結TVB.2010.談情說案.The.Mysteries.of.Love.MKV EP01-EP25 下載點

點擊此處在新視窗瀏覽實際大小的圖片
點擊此處瀏覽連結點擊此處注冊後可以免費得到一個500GB的空間獲得高速下載通道: 
點擊此處在新視窗瀏覽實際大小的圖片Folder link:點擊此處瀏覽連結http://www.fileserve.com/list/gry6rEJ
點擊此處在新視窗瀏覽實際大小的圖片Folder link:點擊此處瀏覽連結TVB.2010.談情說案.The.Mysteries.of.Love.MKV EP01-EP25 下載點

點擊此處瀏覽連結破解免費空間下載時間限制(適用於多個免空)

點擊此處瀏覽連結其他港劇下載點這裡

點擊此處瀏覽連結分割檔可以使用HJSplit 2.3工具合併

※wupload下載教學※
點擊此處瀏覽連結點擊此處在新視窗瀏覽實際大小的圖片

, , , , ,

☜♥☞阿德 發表在 痞客邦 PIXNET 留言(0) 人氣()