2004年 最新熱播韓劇《浪漫滿屋 Full House》【國韓雙語中字】FS WU
【劇 名】:浪漫滿屋
【英 名】:FULL-HOUSE(改編自超熱門漫畫)
【日 名】:フルハウス
【韓 名】:풀하우스
【導 演】:表民洙
【原 作】:元秀蓮(韓國人氣漫畫家,電視劇改編自其同名代表作《Full House》)
【編 劇】:敏孝正
【地 區】:韓國
【日 期】:2004年7月14日-2004年9月2日
【製 作】:2004年
【首播日期】:2004年7月14日
【類 型】:愛情片 偶像劇 輕喜劇
【製 作】:韓國KBS
【集 數】:22集
【主 演】:宋慧喬、鄭智薰(Rain)、金聖洙、韓恩貞、李英恩、江道涵、張勇、金珍英、鮮於銀淑
【語 言】:韓語/國語
【字 幕】:中文字幕
【格 式】:RMVB
【影片大小】:220 MB
【官方網站】:點擊此處瀏覽連結http://www.kbs.co.kr/drama/full/
【官方中文網站】:點擊此處瀏覽連結http://contents.kbs.co.kr/chinese/program/program_dview.php?contentsUid=2&category=0&isBroadcast=N
【維基百科】:點擊此處瀏覽連結http://zh.wikipedia.org/wiki/浪漫滿屋
【播 放】:高清播放與具體劇情介紹

點擊此處在新視窗瀏覽實際大小的圖片

點擊此處在新視窗瀏覽實際大小的圖片

點擊此處在新視窗瀏覽實際大小的圖片

[全螢幕欣賞]


劇情簡介:


智恩是網路作家,一直過著縮衣節食的生活。智恩幼時的朋友希珍和她的男朋友兩人騙智恩出國旅遊,然後偷偷把智恩的房子賣掉了。而智恩在飛機上遇到大明星李英宰,並吐了他一身,彼此留下深刻印象。回國後,智恩發現房子裡面空空蕩蕩,她急忙跑去銀行打聽,原來房子已經被賣掉了。這時候大明星李英宰突然拖著搬家行李闖進了他的家門,對方說房子已被銀行拍賣給了李英宰。英宰看無家可歸的智恩可憐,只好讓智恩住下,並雇她給自己做保姆。英宰為了向從小一起長大的惠媛正式求婚,而買下了這棟房子。當他要向惠媛求婚時,沒想到惠媛卻宣佈了喜歡明赫哥。英宰只有忍著痛苦。但記者聞風而至,英宰深怕這消息傳出會傷害惠媛的心,就將瞬間想起智恩,便向記者們表示,智恩為他的未婚妻。

  智恩(宋慧喬)深愛著父母遺留給他的Full House. 自從父母親去世以後」Full House」就是他的家、他的父母,甚至是他的後援者。 智恩是一個筆名為」敦珠昂」的網上作家。為了生活也做一些亂七雜八的工作,更為維持Full House一直過著縮衣節食的生活.
有一天,大明星李英宰(Rain)突然拖著搬家行李闖進了他的家門。對方說Full House已被銀行拍賣給了李英宰。這是讓他震驚,急忙跑去銀行打聽原來是被他幼時朋友虎成和智恩的女朋友將他的房子和沒多少錢的存折全部處分後溜掉了。 www.6park.com
  英宰為了向從小一起長大的惠媛正式求婚,而買下了這棟房子。當他要向惠媛求婚時,沒想到惠媛卻宣佈了喜歡明赫哥。英宰只有忍著痛苦。但記者聞風而至,英宰深怕這消息傳出會傷害惠媛的心,就將瞬間想起智恩,便向記者們表示,智恩為他的未婚妻。 www.6park.com
  這突來的訂婚新聞讓智恩莫名其妙。為了收拾這情況,英宰的經紀人崔恩廷費盡腦筋。智恩和英宰商量辦個假結婚,並立下保密合同,時間為六個月,對外要做到夫妻的義務、一方放棄就代表放棄所有權利、期滿智恩要回Full House等等。 www.6park.com
  但這突來的結婚沒有一天安寧的生活。從度蜜月兩個人就吵個不停。智恩和英宰住進Full House,不僅是性格上的差異,還互相認定著對方是花心的人,沒有一天不爭吵。 但因為倆人的關係和房子受到媒體的關注,兩人一走出家門都要露出開心的笑容。媒體開始揭露智恩的私生活和往事,這給智恩帶來了很大的傷害。雖早已有心理準備,但沒想到事情會是這麼嚴重。一直對他冷淡的英宰開始幫智恩辯護,甚至開始安慰鼓勵她。智恩心裡在想著這傢伙是怎麼了。但無論如何他們是夫妻,又是同志,雖然只是短短的六個月。 www.6park.com
  但沒想到姜惠媛開始妒嫉起英宰幸福的生活。其實英宰是痛苦的,為了從媒體保護他心愛的惠媛而跟智恩假結婚的英宰。智恩也得知英宰是為了保護心愛的女人而跟他結婚,心裡忽然一陣心酸。姜惠媛和英宰越是親近,在一旁的智恩就會奇怪的難過起來。就在這時民赫出現在智恩的面前。如果沒有英宰,這可是他心目中的白馬王子。英宰面對面智恩也有著一種難以放下的情懷,這個給他快樂和幸福的女孩,卻不能守住她一輩子,心中的痛楚難以表白。對民赫的求婚,惠媛的示愛,智恩和英宰終於明白了誰才是心中的最愛。通過出演智恩所撰寫的劇本,英宰也從事業的低谷重新走向了高峰。 www.6park.com

相關報導
  小天後宋慧喬與人氣王Rain首度合拍的KBS新戲「浪漫滿屋」,7月14日才在韓國上檔,就已引起包括韓國、台灣、香港、大陸及東南亞等地高度的關注,這出改編自漫畫天後元秀蓮作品的電視劇,原著作者原屬意金城武擔綱男主角,將為今夏帶來一股強勁的韓流風;八大戲劇台將於10月份推出這檔新戲,屆時宋慧喬與Rain將聯手來台掀起韓流風。
  小天後宋慧喬在忙完SBS電視劇「陽光普照」及廣告代言活動後,隨即投入新戲「浪漫滿屋」的拍攝工作,對趕拍中的新戲,喬妹妹心底也寄予高度的期望,尤其,「陽光普照」收視普普,觀眾反應平平,更讓她期盼「浪漫滿屋」能扳回昔日的氣勢。
  力圖振作的喬妹妹,在「浪漫滿屋」中可說是卯盡全力演出,不但首度以泳裝亮相,她與男主角Rain火辣辣的吻戲,更是備受矚目,出道至今,即使在「藍色生死戀」、「Allin真愛睹注」等大戲中,即使拍吻戲,她也只是點到為止,「浪漫滿屋」無疑是她從影至今最大突破的戲. www.6park.com
  超人氣王Rain在「浪漫滿屋」中,也做了很大的犧牲,把螢幕初吻獻給了宋慧喬,還大秀他的好身材,圈內人相當看好他在戲劇圈的發展,還預估在經過「浪漫滿屋」這出電視劇的洗禮後,Rain在圈內的地位,將會急起直追其它「花美男」前輩。這出備受矚目的新韓劇「浪漫滿屋」,八大電視台已排定將於10月份隆重上檔,該戲也是八大電視台與韓國製作單位合作三部電視劇的首部曲,第二檔台、韓合制的大戲,也已在籌備中,力邀崔智友、裴勇俊、金喜善、元斌等一線韓星參加演出。

Title: 浪漫滿屋
English title: Full House
Also known as: Pool Ha-woo-seu
Episodes: 16
Genre: Romance, Comedy
Language: Cantonese
Original country: Korea
Year: 2004

Synopsis: Han Ji Eun is a naive writer who got swindled out of everything she owned including her house by her best friends. Stranded in China, She managed to borrow money from an actor Lee Young Jae to return to Korea. On her return, she found out that her house was bought by Lee Young Jae. In an attempt to get her possessions back, she entered in a contract marriage with Young Jae for one year. In spite of losing all, Ji Eun manages to be cheerful and takes things in strike and the business relationship between the two becomes personal as they start to rely and care for each other. Based on a popular manhwa of the same title.

Cast
Bi as Lee Young Jae
Song Hye Kyo as Han Ji Eun
Han Eun Jung as Kang Hye Won
Kim Sung Soo as Yoo Min Hyuk
Jang Yong as Mr. Lee (Young-jae's Father)
Sun Woo Eun Sook as Ms. Kim (Young-jae's Mother)
Kim Ji Young as Young-jae's Grandmother
Do Han as Dong Wook
Lee Young Eun as Hee Jin
Kang Do Han as Lee Dong Wook (Hee Jin boyfriend)
Im Ye Jin as Dae Pyo

點擊此處瀏覽連結※人物詳細介紹※

點擊此處瀏覽連結※精采片段影片※

點擊此處瀏覽連結※華視 漫滿屋-精采片段影片※

※劇  照※
點擊此處在新視窗瀏覽實際大小的圖片

點擊此處在新視窗瀏覽實際大小的圖片

點擊此處在新視窗瀏覽實際大小的圖片

※截  圖※
點擊此處在新視窗瀏覽實際大小的圖片
※影片格式資訊※
General
Complete name : 浪漫滿屋.Full.House.EP01.rmvb
Format : RealMedia
File size : 220 MiB
Duration : 44mn 8s
Overall bit rate : 686 Kbps
Performer : [浪漫滿屋][Full.House][國韓雙語中字][DVD-RMVB]
Copyright : [浪漫滿屋][Full.House]
Video #0
ID : 0
Format : RealVideo 4
Codec ID : RV40
Codec ID/Info : Based on AVC (H.264), Real Player 9
Duration : 44mn 8s
Bit rate : 642 Kbps
Width : 512 pixels
Height : 384 pixels
Display aspect ratio : 4:3
Frame rate : 24.000 fps
Resolution : 12 bits
Bits/(Pixel*Frame) : 0.136
Stream size : 203 MiB (92%)
Audio #1
ID : 1
Format : Cooker
Codec ID : cook
Codec ID/Info : Based on G.722.1, Real Player 6
Duration : 44mn 8s
Bit rate : 44.1 Kbps
Channel(s) : 2 channels [左聲道:國語] [右聲道:韓語]
Sampling rate : 44.1 KHz
Resolution : 16 bits
Stream size : 13.9 MiB (6%)

下載教學步驟一:
進入下載畫面之後,移動到網頁右下方你會看到"普通下載"的按鈕,選擇按下"普通下載"等一下下會出現識別碼,依照顯示的識別碼輸入即可。

下載教學步驟二:
移動到網頁右上方你會看到倒數的秒數出現,等待秒數完成後按下"普通下載"即可下載。

PS:如果識別碼不清楚可以選擇更新輸入後確定等待約20秒即可下載,下載點不支援 訊雷、快車、BT..等等續傳軟體,請使用IE瀏覽器下載。

點擊此處瀏覽連結下載教學網頁圖片請點這裡
KMPlayer 影音播放軟體 (無所不播無所不放安裝版)點擊此處瀏覽連結下載點這裡
FileServe◎Mipony 1.2.2免費空間下載加速工具 地址點擊此處瀏覽連結下載點這裡
xun6◎Mipony 1.2.2免費空間下載加速工具 地址點擊此處瀏覽連結下載點這裡
------------------------------------------------------------------------------------
2004年 最新熱播韓劇《浪漫滿屋 Full House》【國韓雙語中字】
------------------------------------------------------------------------------------
點擊此處瀏覽連結掛機網賺 20dollars2surf,全自動衝浪掛機也可賺錢 點擊此處瀏覽連結※內附完整教學圖※
點擊此處在新視窗瀏覽實際大小的圖片
點擊此處在新視窗瀏覽實際大小的圖片
點擊此處瀏覽連結點擊此處注冊後可以免費得到一個500GB的空間獲得高速下載通道:
HDTV-720P [RMVB]
-== 浪漫滿屋 Full House 第01集至22集[Episode 01 / Episode 22] 下載連結資料夾 ==-
點擊此處在新視窗瀏覽實際大小的圖片Folder link:點擊此處瀏覽連結http://www.fileserve.com/list/D5FKjef
點擊此處在新視窗瀏覽實際大小的圖片Folder link:點擊此處瀏覽連結浪漫滿屋.Full.House.EP01-EP22-國韓雙語中字.rmvb 下載點這裡
點擊此處瀏覽連結浪漫滿屋 1.片花.rmvb
點擊此處瀏覽連結浪漫滿屋 2.宣傳片.rmvb
點擊此處瀏覽連結浪漫滿屋 3.NG鏡頭.rmvb
點擊此處瀏覽連結浪漫滿屋 4.拍攝花絮.rmvb
點擊此處瀏覽連結浪漫滿屋 5.拍攝現場.rmvb
點擊此處瀏覽連結浪漫滿屋 6.導演訪談.rmvb
點擊此處瀏覽連結浪漫滿屋 7.悠閒滿滿(浪漫滿屋專輯).rmvb
點擊此處瀏覽連結浪漫滿屋 8.在上海拍的電影(李英宰主演).rmvb

點擊此處瀏覽連結破解免費空間下載時間限制(適用於多個免空)

點擊此處瀏覽連結其他港劇下載點這裡

點擊此處瀏覽連結分割檔可以使用HJSplit 2.3工具合併

※wupload下載教學※
點擊此處瀏覽連結點擊此處在新視窗瀏覽實際大小的圖片

, , , , ,

☜♥☞阿德 發表在 痞客邦 PIXNET 留言(0) 人氣()