2002年TVB最新熱播劇集《情事緝私檔案 The Trust Of A Life Time》【512P高清TV粵語中字】FS WU
【劇 名】:情事緝私檔案
【英 名】:The Trust Of A Life Time
【監 制】:張乾文
【編 劇】:朱鏡祺 
【編 審】:朱鏡祺、伍立光
【日 期】:2002年4月15日-2002年5月10日
【製 作】:2002年
【播出時間】:星期一至五 9:20PM-10:20PM 翡翠台
【首播日期】:2002年4月15日
【類 型】:科技懸疑推理劇 / 時裝愛情查案 / 時裝懸疑查案
【製 作】:香港電視廣播有限公司 
【集 數】:20集
【主 演】:郭晉安(飾 周耀祖)、郭藹明(飾 何奇通)、唐文龍(飾 谷立行)、鄭敬基(飾 梁天朗)、秦沛(飾 何德)、湯寶如(飾 張寶怡)、劉家輝(飾 周繼正)、雪妮(飾 林鳳萍)、夏萍(飾 馬小英) 、劉綽琪(飾 谷天娜) 
【語 言】:粵語
【字 幕】:中文
【格 式】:RMVB
【影片大小】:164 MB
【官方網站】:點擊此處瀏覽連結http://www.tvbs.com.tw/tvshow/love/default.html
【維基百科】:點擊此處瀏覽連結http://zh.wikipedia.org/wiki/情事緝私檔案
【播 放】:高清播放與具體劇情介紹 

點擊此處在新視窗瀏覽實際大小的圖片

點擊此處在新視窗瀏覽實際大小的圖片

點擊此處在新視窗瀏覽實際大小的圖片

劇情簡介
婚外情偵破一宗又一宗,男朋友嚇跑一個又一個,她,為何與天下男人過不去?
「奇通私家偵探社」社長何奇通認為天下男兒皆薄悻,總愛對男友諸多猜疑,密切監視,以往的男友都給她嚇跑掉,她卻不知道這是自己的偏見作崇。
通因查案而與警員周耀祖結怨。后通重遇舊同學張寶怡,
始知其男友原來是祖。通出於對男人的偏見,呆囑怡要監視祖,令祖不勝其煩,甚至影響怡、祖之間的感情,怡以結婚當日失蹤,祖與通四處找尋,祖因怡的事影響而失職,被警隊辭退,通對此內疚不已,祖萬分沮喪,通在愧疚下對祖加以鼓勵,此後通、祖合作無間,共同偵破了不少案件。
人非草木,誰屬無情?通、祖日久生情,通對男人的心結亦漸漸解開,然而谷立行的出現,卻令通、祖之間的感情泛起波瀾。行的古怪行為喚起通的興趣,行更對通大加追求。通面對行及祖、不知如何處理……此時,怡突然回來,對祖糾纏不休,令這四角關係更形複雜……
難道好男人真是可遇而不可求?

不是冤家不聚頭
郭藹明偵辦婚外情一宗又一宗
男朋友卻嚇跑一個又一個…
緣分總因誤會而起...
郭晉安破案功夫一流 感情卻遭破壞…
歡喜冤家恩怨如何解?

一個女子發覺她的警察丈夫有了另一個女人,她誓要找出証據向這對男女還擊、報復,於是她向一間有名的私家偵探社求助「奇通私家偵探社」。
偵探社負責人何奇通是一個女子,她精明、敏銳,接下了案件後,使全力去追查,終於將女子丈夫的婚外情證據搜集清楚,而那丈夫的拍檔周耀祖卻是同情拍檔的遭遇,不時替拍檔掩飾、開脫,但被識破,二人因而結下了恩怨。
有一天,奇通重遇任職護士的中學同學張寶怡,知道他的男友竟便是耀祖,叮囑她小心提防她男友,甚至教她用私家偵探方法查探男友的行蹤,使耀祖不勝其煩。
後來寶怡懷有身孕,奇通逼兩人結婚,耀祖亦欣然負責任,與寶怡準備結婚,但到結婚當日,寶怡突然人間蒸發不知去向,耀祖為了找尋女友,影響警隊工作,終被警隊辭退。奇通深感歉疚,認為耀祖的不幸,自己有部份責任,希望可以彌補,於是引薦他到偵探社上班。
耀祖一直認為私家偵探社的工作瑣碎,加上自己本來是一個警探,習慣衝鋒陷陣,與奇通拍檔時以警察手法辦事,遂處處碰壁。耀祖、奇通兩人時有衝突,成為歡喜冤家…
由於偵探社不時需要一些科技作調查支援,奇通認識了一個IT才俊高立行,對他心存好感,卻礙於對男子的陰影,只好一直隱藏心裏,耀祖看在眼裏,以為只要有感情滋潤,奇通便會變得溫柔惋順一些,遂從中搗蛋,不料,竟令奇通、立行二人變成情侶…

人物關係圖↓
點擊此處在新視窗瀏覽實際大小的圖片

點擊此處瀏覽連結※人物詳細介紹※

點擊此處瀏覽連結※精采片段影片※

※劇  照※ 
點擊此處在新視窗瀏覽實際大小的圖片

點擊此處在新視窗瀏覽實際大小的圖片

點擊此處在新視窗瀏覽實際大小的圖片

點擊此處在新視窗瀏覽實際大小的圖片

點擊此處在新視窗瀏覽實際大小的圖片

點擊此處在新視窗瀏覽實際大小的圖片

點擊此處在新視窗瀏覽實際大小的圖片

點擊此處在新視窗瀏覽實際大小的圖片

※截  圖※
點擊此處在新視窗瀏覽實際大小的圖片
※影片格式資訊※
General
Complete name : 情事緝私檔案.The.Trust.Of.A.Life.Time.EP01.rmvb
Format : RealMedia
File size : 165 MiB
Duration : 44mn 0s
Overall bit rate : 520 Kbps
Performer : INSPIRON
Copyright : www.lanyin.net(C) 2003
Video #1
ID : 1
Format : RealVideo 4
Codec ID : RV40
Codec ID/Info : Based on AVC (H.264), Real Player 9
Duration : 44mn 0s
Bit rate : 485 Kbps
Width : 512 pixels
Height : 384 pixels
Display aspect ratio : 4:3
Frame rate : 23.000 fps
Resolution : 12 bits
Bits/(Pixel*Frame) : 0.107
Stream size : 153 MiB (93%)
Audio #0
ID : 0
Format : Cooker
Codec ID : cook
Codec ID/Info : Based on G.722.1, Real Player 6
Duration : 44mn 1s
Bit rate : 32.0 Kbps
Channel(s) : 2 channels
Sampling rate : 44.1 KHz
Resolution : 16 bits
Stream size : 10.1 MiB (6%)

下載教學步驟一:
進入下載畫面之後,移動到網頁右下方你會看到"普通下載"的按鈕,選擇按下"普通下載"等一下下會出現識別碼,依照顯示的識別碼輸入即可。

下載教學步驟二:
移動到網頁右上方你會看到倒數的秒數出現,等待秒數完成後按下"普通下載"即可下載。

PS:如果識別碼不清楚可以選擇更新輸入後確定等待約20秒即可下載,下載點不支援 訊雷、快車、BT..等等續傳軟體,請使用IE瀏覽器下載。

點擊此處瀏覽連結下載教學網頁圖片請點這裡
KMPlayer 影音播放軟體 (無所不播無所不放安裝版)→ 點擊此處瀏覽連結下載點這裡
FileServe◎Mipony 1.2.2免費空間下載加速工具 地址→ 點擊此處瀏覽連結下載點這裡
xun6◎Mipony 1.2.2免費空間下載加速工具 地址→ 點擊此處瀏覽連結下載點這裡
------------------------------------------------------------------------------------
2002年TVB最新熱播劇集《情事緝私檔案 The Trust Of A Life Time》【512P高清TV粵語中字】
------------------------------------------------------------------------------------
點擊此處瀏覽連結掛機網賺 20dollars2surf,全自動衝浪掛機也可賺錢 點擊此處瀏覽連結※內附完整教學圖※
點擊此處在新視窗瀏覽實際大小的圖片
點擊此處在新視窗瀏覽實際大小的圖片
點擊此處瀏覽連結點擊此處註冊後可以免費得到一個750GB的空間獲得高速下載通道:
HDTV-720P [MKV]
-== 情事緝私檔案 The Trust Of A Life Time 第01集至20集[Episode 01 / Episode 20] 下載連結資料夾 ==-
點擊此處在新視窗瀏覽實際大小的圖片Folder link:點擊此處瀏覽連結http://www.wupload.com/folder/707540
點擊此處在新視窗瀏覽實際大小的圖片Folder link:點擊此處瀏覽連結2002 TVB 情事緝私檔案 The Trust Of A Life Time
點擊此處瀏覽連結http://www.wupload.com/file/389385149/The.Trust.Of.A.Life.Time.EP01.rmvb
點擊此處瀏覽連結http://www.wupload.com/file/389384993/The.Trust.Of.A.Life.Time.EP02.rmvb
點擊此處瀏覽連結http://www.wupload.com/file/389472385/The.Trust.Of.A.Life.Time.EP03.rmvb
點擊此處瀏覽連結http://www.wupload.com/file/389519739/The.Trust.Of.A.Life.Time.EP04.rmvb
點擊此處瀏覽連結http://www.wupload.com/file/389589194/The.Trust.Of.A.Life.Time.EP05.rmvb
點擊此處瀏覽連結http://www.wupload.com/file/389636374/The.Trust.Of.A.Life.Time.EP06.rmvb
點擊此處瀏覽連結http://www.wupload.com/file/389730531/The.Trust.Of.A.Life.Time.EP07.rmvb
點擊此處瀏覽連結http://www.wupload.com/file/389752508/The.Trust.Of.A.Life.Time.EP08.rmvb
點擊此處瀏覽連結http://www.wupload.com/file/389798410/The.Trust.Of.A.Life.Time.EP09.rmvb
點擊此處瀏覽連結http://www.wupload.com/file/389814063/The.Trust.Of.A.Life.Time.EP10.rmvb
點擊此處瀏覽連結http://www.wupload.com/file/389868955/The.Trust.Of.A.Life.Time.EP11.rmvb
點擊此處瀏覽連結http://www.wupload.com/file/389917259/The.Trust.Of.A.Life.Time.EP12.rmvb
點擊此處瀏覽連結http://www.wupload.com/file/389959323/The.Trust.Of.A.Life.Time.EP13.rmvb
點擊此處瀏覽連結http://www.wupload.com/file/389990027/The.Trust.Of.A.Life.Time.EP14.rmvb
點擊此處瀏覽連結http://www.wupload.com/file/390022282/The.Trust.Of.A.Life.Time.EP15.rmvb
點擊此處瀏覽連結http://www.wupload.com/file/390050193/The.Trust.Of.A.Life.Time.EP16.rmvb
點擊此處瀏覽連結http://www.wupload.com/file/390099508/The.Trust.Of.A.Life.Time.EP17.rmvb
點擊此處瀏覽連結http://www.wupload.com/file/390268765/The.Trust.Of.A.Life.Time.EP18.rmvb
點擊此處瀏覽連結http://www.wupload.com/file/390334870/The.Trust.Of.A.Life.Time.EP19.rmvb
點擊此處瀏覽連結http://www.wupload.com/file/390357857/The.Trust.Of.A.Life.Time.EP20.rmvb

點擊此處瀏覽連結破解免費空間下載時間限制(適用於多個免空)

點擊此處瀏覽連結其他港劇下載點這裡

點擊此處瀏覽連結分割檔可以使用HJSplit 2.3工具合併

※wupload下載教學※
點擊此處瀏覽連結點擊此處在新視窗瀏覽實際大小的圖片

, , ,

☜♥☞阿德 發表在 痞客邦 PIXNET 留言(0) 人氣()