2008年TVB最新熱播劇集《法證先鋒2 Frensic HeroesII》【720P高清TV粵語中字】FS WU
【劇 名】:法證先鋒2
【英 名】:Frensic Heroes II
【監 制】:梅小青
【編 劇】:蔡婷婷、劉小群、林少枝、翁善瑩、楊雪兒、冼翠貞、冼少玲
【編 導】:陳志江、冼燕芳、陳湘娟、伍兆榮、朱禮和、廖晉碩
【助 導】:吳超榮、黃嘉禧、黃志華、陳展安、劉嘉和、黃耀輝、邱 銘、黃立天、李鳳萌
【編 審】:陳靜儀、蔡婷婷
【統 籌】:凌偉光
【日 期】:2008年5月19日-2008年6月28日 
【製 作】:2007年9月-2007年12月
【播出時間】:星期一至五 9:30PM 翡翠台、9:30PM 高清翡翠台
【首播日期】:2008年5月19日
【類 型】:科技懸疑推理劇 / 時裝查案
【製 作】:香港電視廣播有限公司 
【集 數】:30集
【接 檔】:原來愛上賊 ←→上一檔:5月16日 / 下一檔:6月30日 ←→ 疑情別戀
【主 演】:歐陽震華(飾 高彥博)、佘詩曼(飾 馬幗英)、林文龍(飾 古澤琛) 、蒙嘉慧(飾 梁小柔) 、鍾嘉欣(飾 林汀汀)、曹永廉(飾 沈雄)、郭少芸(飾 莫淑媛)、陳芷菁(飾 林沛沛)、楊秀惠(飾 凌心怡)、鄭嘉穎(飾 楊逸昇)、陳美詩(飾 方妙娜)、陳智燊(飾 王永民)、鄭俊弘(飾 梁小剛)、呂珊(飾 楊秀娟)、趙靜儀(飾 陳敏如)
【語 言】:粵語
【字 幕】:中文
【格 式】:RMVB
【影片大小】:267 MB
【官方網站】:點擊此處瀏覽連結http://tvcity.tvb.com/drama/forensicheroes2/
【維基百科】:點擊此處瀏覽連結http://zh.wikipedia.org/wiki/%E6%B3%95%E8%AD%89%E5%85%88%E9%8B%92II
【播 放】:高清播放與具體劇情介紹 

點擊此處在新視窗瀏覽實際大小的圖片

劇情簡介
法證部高級化驗師高彥博為人博學、冷靜、機智,貫徹「毋枉毋縱」的法證精神,帶領法證部與警方合作偵破無數案件,不過罪犯手法愈趨高智慧、狡猾,法證部亦要不斷精進,務求更科學化、更巧妙、更有效率地找出案件真相,所以法證人員的工作也見日益繁重。
非常法醫古澤琛,亦是著名推理小說家,曾經因應其小說而牽引出幾件曲折離奇的案件。他藉著解剖屍體和活體取證,為死者或受害人說話,把罪案的真相呈現眼前...
澤琛和法證部政府化驗所技術員林汀汀共同經歷了一段起伏的感情路,終於開花結果。身邊所有人都為他倆而高興、祝福。然而,正當澤琛和汀汀籌備婚禮之際,另一邊廂的彥博和西九龍重案組督察梁小柔的一段感情,卻因為彥博的理性而顯得平淡,小柔其實亦羨慕澤琛和汀汀的浪漫和激情,雖然知道彥博是用情專一的男人,但也不禁有患得患失之感。

一宗牽涉國際毒販的兇殺案,把毒品調查科高級督察馬幗英介入彥博、澤琛和小柔的合作關係當中。
幗英領導毒品調查科兩年,是警隊中出色的破案高手。小柔辦案勇猛過人,每每身先士卒,幗英卻屬於智慧型審訊高手,每逢審問疑犯前,均會先掌握案情關鍵,再逼問犯人,令其供出真相。幗英審問手法靈活多變,更會親自模擬兇案現場環境,以求勾起受害者的記憶,從中找出破案線索。
兩幫毒販為了利益而互相廝殺,甚至以炸彈來對付仇家,在一次手榴彈襲擊事件中,幸得澤琛少年時代的好友楊逸昇的偶然出現,化解了一場危機。
逸昇原來是英國回來的拆彈專家,處事鎮定,能承受生死一線的壓力,並且曾修讀有關毛髮研究及血液分析的課程,極有法證觸覺。彥博初認識逸昇,便認為是個人才,有心吸納逸昇成為法證部一員猛將。而逸昇亦屢次見識到彥博利用法證方法與科技於偵破案件的力量,深表佩服,與彥博惺惺相惜。
澤琛和汀汀的婚期迫近,二人滿懷興奮地迎接著大囍日子,沒想到,毒販間的炸彈襲擊卻摧毀了他們的美夢,也毀掉了小柔的未來。一聲爆炸的巨響,令到汀汀當場炸死,小柔重傷。小柔的右耳被震得失聰、右手神經受損,無奈從重案組的火線上退了下來。
汀汀的死帶給澤琛極大的傷痛,良久不能平伏。事件也令彥博更加珍惜和小柔的緣份,但小柔一直覺得自己付出的感情較彥博多,及後彥博向小柔求婚,小柔已分不清彥博對自己是出於道義、責任還是真愛,對工作及感情均失去自信。
為了不讓汀汀白死,為了不讓犯罪者逍遙法外,彥博、逸昇和澤琛誓要不惜任何代價,把殺人者繩之於法!小柔受重傷後,幗英取代小柔的職務,帶領重案組追緝兇徒。但幗英的作風令重案組內沈雄、凌心怡等人大為不滿,處處與幗英起衝突。
以逸昇對炸彈的熟悉、澤琛從屍體上取得的答案、彥博從法證上取得的證據,再加上幗英鍥而不捨的調查,殺害汀汀的兇徒終於難逃法網。而澤琛也終於能從陰霾的日子中走出來,重新振作,為了汀汀,堅強地活下去。

人物關係圖↓
點擊此處在新視窗瀏覽實際大小的圖片

點擊此處瀏覽連結※人物詳細介紹※

點擊此處瀏覽連結※精采片段影片※

※劇  照※ 
點擊此處在新視窗瀏覽實際大小的圖片

點擊此處在新視窗瀏覽實際大小的圖片

點擊此處在新視窗瀏覽實際大小的圖片

點擊此處在新視窗瀏覽實際大小的圖片

點擊此處在新視窗瀏覽實際大小的圖片

點擊此處在新視窗瀏覽實際大小的圖片

點擊此處在新視窗瀏覽實際大小的圖片

點擊此處在新視窗瀏覽實際大小的圖片

※截  圖※
點擊此處在新視窗瀏覽實際大小的圖片
※影片格式資訊※
General
Complete name : 法證先鋒2.Forensic.Heroes.II.EP01.rmvb
Format : RealMedia
File size : 267 MiB
Duration : 43mn 24s
Overall bit rate : 847 Kbps
Performer : ◇TVB 2008 法證先鋒II◆
Copyright : TVB
Video #1
ID : 1
Format : RealVideo 4
Codec ID : RV40
Codec ID/Info : Based on AVC (H.264), Real Player 9
Duration : 43mn 24s
Bit rate : 803 Kbps
Width : 720 pixels
Height : 540 pixels
Display aspect ratio : 4:3
Frame rate : 29.000 fps
Resolution : 12 bits
Bits/(Pixel*Frame) : 0.071
Stream size : 249 MiB (93%)
Audio #0
ID : 0
Format : Cooker
Codec ID : cook
Codec ID/Info : Based on G.722.1, Real Player 6
Duration : 43mn 26s
Bit rate : 44.1 Kbps
Channel(s) : 2 channels
Sampling rate : 44.1 KHz
Resolution : 16 bits
Stream size : 13.7 MiB (5%)

下載教學步驟一:
進入下載畫面之後,移動到網頁右下方你會看到"普通下載"的按鈕,選擇按下"普通下載"等一下下會出現識別碼,依照顯示的識別碼輸入即可。

下載教學步驟二:
移動到網頁右上方你會看到倒數的秒數出現,等待秒數完成後按下"普通下載"即可下載。

PS:如果識別碼不清楚可以選擇更新輸入後確定等待約20秒即可下載,下載點不支援 訊雷、快車、BT..等等續傳軟體,請使用IE瀏覽器下載。

點擊此處瀏覽連結下載教學網頁圖片請點這裡
KMPlayer 影音播放軟體 (無所不播無所不放安裝版)→ 點擊此處瀏覽連結下載點這裡
FileServe◎Mipony 1.2.2免費空間下載加速工具 地址→ 點擊此處瀏覽連結下載點這裡
xun6◎Mipony 1.2.2免費空間下載加速工具 地址→ 點擊此處瀏覽連結下載點這裡
------------------------------------------------------------------------------------
2007年TVB最新熱播劇集《法證先鋒2 Frensic HeroesII》【720P高清TV粵語中字】
------------------------------------------------------------------------------------
點擊此處瀏覽連結掛機網賺 20dollars2surf,全自動衝浪掛機也可賺錢 點擊此處瀏覽連結※內附完整教學圖※
點擊此處在新視窗瀏覽實際大小的圖片
點擊此處在新視窗瀏覽實際大小的圖片
點擊此處瀏覽連結點擊此處註冊後可以免費得到一個750GB的空間獲得高速下載通道:
HDTV-720P [MKV]
-== 法證先鋒 Frensic Heroes 第01集至30集[Episode 01 / Episode 30] 下載連結資料夾 ==-
點擊此處在新視窗瀏覽實際大小的圖片Folder link:點擊此處瀏覽連結http://www.wupload.com/folder/701443
點擊此處在新視窗瀏覽實際大小的圖片Folder link:點擊此處瀏覽連結2007 ATVB 法證先鋒2 Frensic Heroes II
點擊此處瀏覽連結http://www.wupload.com/file/381405160/Forensic.Heroes.II.EP01.rmvb
點擊此處瀏覽連結http://www.wupload.com/file/381555705/Forensic.Heroes.II.EP02.rmvb
點擊此處瀏覽連結http://www.wupload.com/file/381585633/Forensic.Heroes.II.EP03.rmvb
點擊此處瀏覽連結http://www.wupload.com/file/381661172/Forensic.Heroes.II.EP04.rmvb
點擊此處瀏覽連結http://www.wupload.com/file/381915934/Forensic.Heroes.II.EP05.rmvb
點擊此處瀏覽連結http://www.wupload.com/file/381930344/Forensic.Heroes.II.EP06.rmvb
點擊此處瀏覽連結http://www.wupload.com/file/381954915/Forensic.Heroes.II.EP07.rmvb
點擊此處瀏覽連結http://www.wupload.com/file/381979641/Forensic.Heroes.II.EP08.rmvb
點擊此處瀏覽連結http://www.wupload.com/file/382004221/Forensic.Heroes.II.EP09.rmvb
點擊此處瀏覽連結http://www.wupload.com/file/382018868/Forensic.Heroes.II.EP10.rmvb
點擊此處瀏覽連結http://www.wupload.com/file/382037765/Forensic.Heroes.II.EP11.rmvb
點擊此處瀏覽連結http://www.wupload.com/file/382051410/Forensic.Heroes.II.EP12.rmvb
點擊此處瀏覽連結http://www.wupload.com/file/382072634/Forensic.Heroes.II.EP13.rmvb
點擊此處瀏覽連結http://www.wupload.com/file/382091468/Forensic.Heroes.II.EP14.rmvb
點擊此處瀏覽連結http://www.wupload.com/file/382103205/Forensic.Heroes.II.EP15.rmvb
點擊此處瀏覽連結http://www.wupload.com/file/382123551/Forensic.Heroes.II.EP16.rmvb
點擊此處瀏覽連結http://www.wupload.com/file/382145762/Forensic.Heroes.II.EP17.rmvb
點擊此處瀏覽連結http://www.wupload.com/file/382160352/Forensic.Heroes.II.EP18.rmvb
點擊此處瀏覽連結http://www.wupload.com/file/382171546/Forensic.Heroes.II.EP19.rmvb
點擊此處瀏覽連結http://www.wupload.com/file/382204076/Forensic.Heroes.II.EP20.rmvb
點擊此處瀏覽連結http://www.wupload.com/file/382239054/Forensic.Heroes.II.EP21.rmvb
點擊此處瀏覽連結http://www.wupload.com/file/382266145/Forensic.Heroes.II.EP22.rmvb
點擊此處瀏覽連結http://www.wupload.com/file/382287150/Forensic.Heroes.II.EP23.rmvb
點擊此處瀏覽連結http://www.wupload.com/file/382361245/Forensic.Heroes.II.EP24.rmvb
點擊此處瀏覽連結http://www.wupload.com/file/382373054/Forensic.Heroes.II.EP25.rmvb
點擊此處瀏覽連結http://www.wupload.com/file/382445470/Forensic.Heroes.II.EP26.rmvb
點擊此處瀏覽連結http://www.wupload.com/file/382449056/Forensic.Heroes.II.EP27.rmvb
點擊此處瀏覽連結http://www.wupload.com/file/382475961/Forensic.Heroes.II.EP28.rmvb
點擊此處瀏覽連結http://www.wupload.com/file/382487045/Forensic.Heroes.II.EP29.rmvb
點擊此處瀏覽連結http://www.wupload.com/file/382719267/Forensic.Heroes.II.EP30.rmvb
點擊此處瀏覽連結法證先鋒2.花絮篇.Forensic.Heroes.II.EP01.Special.Ending.rmvb
點擊此處瀏覽連結法證先鋒2.花絮篇.Forensic.Heroes.II.EP02.Special.Ending.rmvb

點擊此處瀏覽連結破解免費空間下載時間限制(適用於多個免空)

點擊此處瀏覽連結其他港劇下載點這裡

點擊此處瀏覽連結分割檔可以使用HJSplit 2.3工具合併

※wupload下載教學※
點擊此處瀏覽連結點擊此處在新視窗瀏覽實際大小的圖片

, , , , ,

☜♥☞阿德 發表在 痞客邦 PIXNET 留言(0) 人氣()