2011年TVB最新熱播劇集《法證先鋒III Forensic Heroes III》【720P高清TV粵語中字】FS WU
【劇 名】:法證先鋒Ⅲ
【英 名】:Forensic Heroes III
【監 制】:梅小青
【編 導】:陳志江、黃國強、黃偉賢、關文深、伍兆榮
【編 審】:蔡婷婷、梁敏華
【編 劇】:蔡婷婷、冼少玲
【統 籌】:詹淑英
【日 期】:2011年10月10日-2011年11月18日
【製 作】:2011年1月-5月
【播出時間】:星期一至五 9:30PM 翡翠台、9:30PM 高清翡翠台
【首播日期】:2011年10月10日
【類 型】:時裝查案
【製 作】:香港電視廣播有限公司 
【集 數】:30集
【接 檔】:不速之約 ←→上一檔:10月7日 / 下一檔:11月21日 ←→ 天與地
【主 演】:黎耀祥 (飾布國棟)、 張可頤 (飾鍾學心)、 吳卓羲 (飾李展風)、 徐子珊 (飾凌倩兒)、 陳茵媺 (飾蔣卓君)、 胡定欣 (飾周奕霏)、 陳展鵬 (飾方世友)、 蕭正楠 (飾何正民)、 蔣志光 (飾游健保)
【其他演員】:元華、 沈卓盈、 沈震軒、 周驄、 陳志健、 鄧永健、 韓馬利、 羅鈞滿、 楊潮凱、 謝東閔、 張景淳、 劉秉賓、 魏焌皓、 葉婷芝、 黃得生、 鄭詠謙、 曾偉權、 黎桐康、 李偉健、 苟芸慧、 黎諾懿、 蔡淇俊、 陸駿光、 羅天池、 林淑敏、 邵卓堯、 沈可欣、 翟威廉、 范彩兒、 王淑玲、 尹詩沛、 沈愛琳、 馬詠恩、 許明志、 李豪、 潘宗揚、 劉天龍、 顏桂洲、 李漫芬
【語 言】:粵語
【字 幕】:中文
【影片大小】:1.03 GB
【官方網站】:點擊此處瀏覽連結http://programme.tvb.com/drama/forensicheroes3/
【維基百科】:點擊此處瀏覽連結http://zh.wikipedia.org/wiki/法證先鋒III
【播 放】:高清播放與具體劇情介紹 

點擊此處在新視窗瀏覽實際大小的圖片

點擊此處在新視窗瀏覽實際大小的圖片
劇情簡介
一宗婚宴中的槍擊事件,掀開兩宗案件的序幕…法證事務部、法醫科和警察重案組各部門精英,再次攜手合作,查案緝兇,撲滅罪行,維護法紀!

三法再度聯手
法證部高級化驗師布國棟(黎耀祥飾)學識淵博,堪稱「人肉百科全書」。法醫科高級醫生鍾學心(張可頤飾),做事積極投入,曾進修各類型課程,令工作上往往有出奇不意的幫助。布國棟和鍾學心因工作關係而成為好友,時常並肩作戰,甚有默契。二人交談間常滲進一些科學和醫學的專業名詞,二人常被揶揄以「火星話」溝通。
西九龍重案組高級督察凌倩兒(徐子珊飾),擅長策略和部署,與下屬相處融洽。西九龍重案組警長李展風(吳卓羲飾)為凌倩兒的得力助手,曾為飛虎隊隊員,故身手了得,家境富裕,卻為追求理想投身警界。
法證部科學鑑證主任蔣卓君(陳茵媺飾)是部門的新力軍,她常插手查案,而同屬科學鑑證主任的何正民(蕭正楠飾),因做事按部就班,對蔣卓君的「越界」舉動不表認同,時常阻撓。為此蔣卓君與何正民因各自的原則不同而產生一些磨擦,但漸漸兩人在工作中加深了解,關係因此得到改善。法證部科學鑑證主任游健保(蔣志光飾)年紀較長,其人生經驗豐富,可說是一位「通識達人」,又或是「人肉掌故王」。

專業身份的背後
鍾學心本獨居,後來好友凌倩兒遷入成為租客,二人同居一室,互訴女人心事之餘,亦不時討論案情,互相增益不少。布國棟娶妻周奕霏(胡定欣飾),育有一女,並與父布順興(元華飾)同住。周奕霏為執業大律師,是法律界的一顆閃耀新星。可惜周奕霏為名利選擇幫助富商謀取暴利,與布國棟以公義為先的價值觀出現了分歧,幸福婚姻最後離婚告終。布國棟因婚變而情緒低落,鍾學心給予開解,助其渡過情緒上的難關,由工作上的好拍檔昇華至知心好友。
在鍾學心與布國棟的感情在默默滋長的同時,臨床心理學家方世友(陳展鵬飾)對鍾學心展開追求,二人交往期間,方世友失蹤多年的弟弟,發現被謀殺並埋葬於荒島上。鍾學心與布國棟有份參予調査工作,在案件調查中,暴露了方世友與鍾學心之間的分歧,最後二人因了解而分手。

未解開的心結
布國棟發現鍾學心年幼時父母被謀殺的事成為陰影,心結難解。行兇者被判終生監禁,如今獲假釋出獄,還揚言謀殺案實是冤案,自己是清白無辜!鍾學心為尋求真相,不眠不休搜集證據,布國棟亦從旁協助,二人聯手,終查出昔日案件的真相。

人物關係圖↓
點擊此處在新視窗瀏覽實際大小的圖片

點擊此處瀏覽連結※人物詳細介紹※

點擊此處瀏覽連結※精采片段影片※

※劇  照※ 
點擊此處在新視窗瀏覽實際大小的圖片

點擊此處在新視窗瀏覽實際大小的圖片

點擊此處在新視窗瀏覽實際大小的圖片

點擊此處在新視窗瀏覽實際大小的圖片

※截  圖※
點擊此處在新視窗瀏覽實際大小的圖片
※影片格式資訊※
General
Complete name : 法證先鋒III.Forensic.Heroes.3.720P.E01.mkv
Format : Matroska
File size : 1.03 GiB
Duration : 43mn 29s
Overall bit rate : 3 379 Kbps
Encoded date : UTC 2011-10-10 15:22:21
Writing application : mkvmerge v2.9.8 ('C'est le bon') built on Aug 13 2009 12:49:06
Writing library : libebml v0.7.7 + libmatroska v0.8.1
Video #1
ID : 1
Format : AVC
Format/Info : Advanced Video Codec
Format profile : Main@L3.1
Format settings, CABAC : Yes
Format settings, ReFrames : 2 frames
Muxing mode : Container profile=Unknown@3.1
Codec ID : V_MPEG4/ISO/AVC
Duration : 43mn 29s
Bit rate : 2 928 Kbps
Nominal bit rate : 3 000 Kbps
Width : 1 280 pixels
Height : 720 pixels
Display aspect ratio : 16:9
Frame rate : 25.000 fps
Resolution : 24 bits
Colorimetry : 4:2:0
Scan type : Progressive
Bits/(Pixel*Frame) : 0.127
Stream size : 911 MiB (87%)
Title : Move(影片軌)
Writing library : x264 core 114 r1913 5fd3dce
Encoding settings : cabac=1 / ref=1 / deblock=1:0:0 / analyse=0x1:0x131 / me=hex / subme=4 / psy=1 / psy_rd=0.00:0.00 / mixed_ref=0 / me_range=16 / chroma_me=1 / trellis=0 / 8x8dct=0 / cqm=0 / deadzone=21,11 / fast_pskip=1 / chroma_qp_offset=0 / threads=6 / sliced_threads=0 / nr=0 / decimate=1 / interlaced=0 / constrained_intra=0 / bframes=3 / b_pyramid=0 / b_adapt=1 / b_bias=0 / direct=1 / weightb=1 / open_gop=0 / weightp=2 / keyint=250 / keyint_min=25 / scenecut=40 / intra_refresh=0 / rc=abr / mbtree=0 / bitrate=3000 / ratetol=1.0 / qcomp=0.60 / qpmin=10 / qpmax=51 / qpstep=4 / ip_ratio=1.40 / pb_ratio=1.30 / aq=1:1.00
Language : Chinese
Audio #2
ID : 2
Format : AC-3
Format/Info : Audio Coding 3
Codec ID : A_AC3
Duration : 43mn 29s
Bit rate mode : Constant
Bit rate : 384 Kbps
Channel(s) : 6 channels
Channel positions : Front: L C R, Surround: L R, LFE
Sampling rate : 48.0 KHz
Video delay : 8ms
Stream size : 119 MiB (11%)
Title : Cantonese(粵語)
Language : Chinese
Text #3
ID : 3
Format : UTF-8
Codec ID : S_TEXT/UTF8
Codec ID/Info : UTF-8 Plain Text
Title : CHT(繁體中文)
Language : Chinese

下載教學步驟一:
進入下載畫面之後,移動到網頁右下方你會看到"普通下載"的按鈕,選擇按下"普通下載"等一下下會出現識別碼,依照顯示的識別碼輸入即可。

下載教學步驟二:
移動到網頁右上方你會看到倒數的秒數出現,等待秒數完成後按下"普通下載"即可下載。

PS:如果識別碼不清楚可以選擇更新輸入後確定等待約20秒即可下載,下載點不支援 訊雷、快車、BT..等等續傳軟體,請使用IE瀏覽器下載。

點擊此處瀏覽連結下載教學網頁圖片請點這裡
KMPlayer 影音播放軟體 (無所不播無所不放安裝版)→ 點擊此處瀏覽連結下載點這裡
FileServe◎Mipony 1.2.2免費空間下載加速工具 地址→ 點擊此處瀏覽連結下載點這裡
xun6◎Mipony 1.2.2免費空間下載加速工具 地址→ 點擊此處瀏覽連結下載點這裡
------------------------------------------------------------------------------------
2011年TVB最新熱播劇集《法證先鋒Ⅲ Forensic Heroes III》【720P高清TV粵語中字】
------------------------------------------------------------------------------------
點擊此處瀏覽連結掛機網賺 20dollars2surf,全自動衝浪掛機也可賺錢 點擊此處瀏覽連結※內附完整教學圖※
點擊此處在新視窗瀏覽實際大小的圖片
點擊此處在新視窗瀏覽實際大小的圖片
點擊此處瀏覽連結點擊此處註冊後可以免費得到一個750GB的空間獲得高速下載通道:
HDTV-720P [MKV]
-== 法證先鋒III 第01集至30集[Episode 01 / Episode 30] 下載連結資料夾 ==-
點擊此處在新視窗瀏覽實際大小的圖片Folder link:點擊此處瀏覽連結http://www.wupload.com/folder/693505

點擊此處在新視窗瀏覽實際大小的圖片
點擊此處瀏覽連結點擊此處注冊後可以免費得到一個500GB的空間獲得高速下載通道: 
點擊此處在新視窗瀏覽實際大小的圖片Folder link:點擊此處瀏覽連結2011 TVB 法證先鋒Ⅲ Forensic Heroes III
點擊此處在新視窗瀏覽實際大小的圖片點擊此處瀏覽連結http://www.fileserve.com/list/cCSSHQH

HDTV-480P [RMVB]
第01集 Episode 01
FS
點擊此處在新視窗瀏覽實際大小的圖片Folder link:點擊此處瀏覽連結http://www.fileserve.com/list/cCSSHQH
點擊此處瀏覽連結http://www.fileserve.com/file/s8eaMM5/Forensic.Heroes.III.E01.rmvb

WU
點擊此處在新視窗瀏覽實際大小的圖片Folder link:點擊此處瀏覽連結http://www.wupload.com/folder/693518
點擊此處瀏覽連結http://www.wupload.com/file/366770037/Forensic.Heroes.III.E01.rmvb
點擊此處瀏覽連結http://www.wupload.com/file/368086824/Forensic.Heroes.3.HDz.E01.rmvb

點擊此處瀏覽連結破解免費空間下載時間限制(適用於多個免空)

點擊此處瀏覽連結其他港劇下載點這裡

點擊此處瀏覽連結分割檔可以使用HJSplit 2.3工具合併

※wupload下載教學※
點擊此處瀏覽連結點擊此處在新視窗瀏覽實際大小的圖片

, , , , , , , , , ,

☜♥☞阿德 發表在 痞客邦 PIXNET 留言(0) 人氣()