大美女河智苑 主演 《綁架愛情100天 Slave Love》高清BD-AVI韓語中字【FS WU】
【片 名】:愛情賣身契 / 綁架愛情100天 / 我的愛無厘頭 / 我的愛,小無賴 / 내사랑 싸가지
【英 名】:Slave Love / My Love Ssagajy / 100 Days with Mr. Arrogant 
【年 代】:2004年
【地 區】:韓國(南韓)
【類 型】:劇情 / 愛情 / 喜劇
【語 言】:韓語
【字 幕】:外掛 繁體中文 / 簡體中文
【尺 寸】:576 x 320
【片 長】:01:35:55
【格 式】:avi-XviD Audio:MP3-2CH
【格 式】:avi
【容 量】:699 MB
【上 映】:2004年1月16日
【發 行】:紘濬科技股份有限公司 / 潤程娛樂發行有限公司
【導 演】:申東燁 SHIN Dong-yeop 
【主 演】:金在元 AHN Hyung-joon 、河智苑 Ji-won Ha 河智源、金太賢
Ha Ji-Won, Kim Jae-Won, Kim Tae-Hyun, Han Min, Yong Seon-Hee, Hong Ji-Young, Kim Chang-Wan, Lee Eung-Kyung
【IMDB評分】:5.9/10 ( 735 votes)
【IMDB鏈接】:點擊此處瀏覽連結http://www.imdb.com/title/tt0395677/

點擊此處在新視窗瀏覽實際大小的圖片

點擊此處在新視窗瀏覽實際大小的圖片

點擊此處在新視窗瀏覽實際大小的圖片

※劇情簡介※
剛被男友拋棄的高中生夏英(河智源飾),心情悶悶不樂,一腳踢起街上一個空罐子,豈料此無心的一腳竟價值三百萬韓圜!
夏英踢起的罐子打中勇俊(金在元飾)的名貴跑車,勇俊馬上借故向夏英索償三百萬韓圜作維修費。夏英身無分文,惟有跟勇俊簽下約定,為奴為婢一百天以支付費用。夏英苦幹一頓後,她才發現實際維修費只不過是一萬韓圜!夏英怒火中燒,誓要徹徹底底向勇俊大報復!

2004年韓國愛情喜劇《愛情賣身契》(又名︰綁架愛情100天/我的愛,小無賴)由網上小說改編,人氣韓劇《羅曼史》金在元顆拍古裝劇巨著《茶母》河智源,擦出惹笑火花。

常發花痴,又愛做白日夢的高中美眉:荷英(何智元飾),在與無趣的男友認識第一百天的紀念日,卻被甩了!難忍被豬頭拋棄的氣憤,荷英當街踢起一個空罐子,萬萬沒想到這罐子,不偏不倚正巧打到了俊俏的大學生亨俊(金載沅飾)的頭上,正駕著百萬名車的亨俊,就這麼連人帶車地撞上了牆…… 
亨俊逮住了荷英,要求賠償一百萬修車費,沒錢又單純的荷英,被迫無法度只好簽下一紙愛情賣身契答應成為亨俊的奴隸,任由亨俊差遣一百天。家事弱智的荷英會在亨俊家闖出甚麼大禍?霸氣公子哥與迷糊俏奴隸在這一百天中,又會發生甚麼難以預料的事?苦盡甘來,……卻發現修車費竟然只要一萬元的荷英,又會如何展開瘋狂絕妙大報復呢?! 
韓國愛情喜劇,金載沅、何智元主演,迷糊好欺騙的俏美眉,愛情能否從天而降?!
這是一部戲劇張力十足的韓國電影。因一場少女春夢惹來禍端,有錢人家的公子哥現身和高中少女的愛情故事,怎麼樣,期待喔~~我自己也很想知道被第二性徵搞得體內荷爾蒙不平衡的高中少女會有怎樣的驚人之舉?韓國片就像是升級版的愛情,劇情更加緊湊!當然對白每一句都很戲劇;總之,不誇張到極點是絕對無法討影迷開心更不會在電影裡出現的;照理說,韓國出品,我們都該信心十足,可是片中的男大女小的安排 的確很有看頭。只是,只是……老愛小露身上肌肉的男主角膚色有點慘白(白斬雞)女主角又有黑眼圈,一點都不青春。這樣的標準不知道是不是導演故意的,還是預算有限?請不到更紅的男女明星擔任,是有點美足不足──大致上還不錯看,我是一邊看一邊狂笑…… 

點擊此處瀏覽連結綁架愛情100天 求愛片段

※劇  照※
點擊此處在新視窗瀏覽實際大小的圖片

點擊此處在新視窗瀏覽實際大小的圖片

點擊此處在新視窗瀏覽實際大小的圖片

※截  圖※
點擊此處在新視窗瀏覽實際大小的圖片
※影片格式詳細資料※
General
Complete name : 綁架愛情100天.Slave.Love.avi
Format : AVI
Format/Info : Audio Video Interleave
File size : 699 MiB
Duration : 1h 35mn
Overall bit rate : 1 019 Kbps
Writing application : VirtualDubMod 1.5.10.1 (build 2366/release)
Writing library : VirtualDubMod build 2366/release
Video #0
ID : 0
Format : MPEG-4 Visual
Format profile : AdvancedSimple@L5
Format settings, BVOP : No
Format settings, QPel : No
Format settings, GMC : No warppoints
Format settings, Matrix : Default (H.263)
Codec ID : XVID
Codec ID/Hint : XviD
Duration : 1h 35mn
Bit rate : 875 Kbps
Width : 576 pixels
Height : 320 pixels
Display aspect ratio : 16:9
Frame rate : 23.976 fps
Resolution : 24 bits
Colorimetry : 4:2:0
Scan type : Progressive
Bits/(Pixel*Frame) : 0.198
Stream size : 600 MiB (86%)
Writing library : XviD 1.0.0 RC3 (Nihao) (UTC 2004-03-22)
Audio #1
ID : 1
Format : MPEG Audio
Format version : Version 1
Format profile : Layer 3
Codec ID : 55
Codec ID/Hint : MP3
Duration : 1h 35mn
Bit rate mode : Variable
Bit rate : 131 Kbps
Nominal bit rate : 128 Kbps
Channel(s) : 2 channels
Sampling rate : 48.0 KHz
Resolution : 16 bits
Stream size : 90.1 MiB (13%)
Alignment : Aligned on interleaves
Interleave, duration : 24 ms (0.58 video frame)
Interleave, preload duration : 493 ms
Writing library : LAME3.90.
Encoding settings : -m j -V 4 -q 2 -lowpass 17.6 --abr 128

-------------------------------------------------------------------------------------------------------
下載教學步驟一:
進入下載畫面之後,移動到網頁右下方你會看到"普通下載"的按鈕,選擇按下"普通下載"等一下下會出現識別碼,依照顯示的識別碼輸入即可。

下載教學步驟二:
移動到網頁右上方你會看到倒數的秒數出現,等待秒數完成後按下"普通下載"即可下載。

PS:如果識別碼不清楚可以選擇更新輸入後確定等待約20秒即可下載,下載點不支援 訊雷、快車、BT..等等續傳軟體,請使用IE瀏覽器下載。

點擊此處瀏覽連結下載教學網頁圖片請點這裡
KMPlayer Ver.2.9.4.1436影音播放軟體 (內含加掛MP3插件 無所不播無所不放免安裝版)→ 點擊此處瀏覽連結下載點這裡
FileServe◎Mipony 1.2.2免費空間下載加速工具 地址→ 點擊此處瀏覽連結下載點這裡
xun6◎Mipony 1.2.2免費空間下載加速工具 地址→ 點擊此處瀏覽連結下載點這裡
------------------------------------------------------------------------
大美女河智苑 主演 《綁架愛情100天 Slave Love》高清BD-AVI韓語中字
------------------------------------------------------------------------ 
點擊此處瀏覽連結掛機網賺 20dollars2surf,全自動衝浪掛機也可賺錢 點擊此處瀏覽連結※內附完整教學圖※
點擊此處瀏覽連結分割檔可以使用HJSplit 2.3工具合併
點擊此處在新視窗瀏覽實際大小的圖片HJSplit 2.3 檔案分割、合併、比對 繁體中文免安裝版 下載地址→
點擊此處瀏覽連結下載點這裡
點擊此處在新視窗瀏覽實際大小的圖片
BD-720P [RMVB]《綁架愛情100天 Slave Love》下載連結資料夾:
點擊此處在新視窗瀏覽實際大小的圖片
點擊此處瀏覽連結點擊此處注冊後可以免費得到一個500GB的空間獲得高速下載通道: 
點擊此處在新視窗瀏覽實際大小的圖片點擊此處瀏覽連結其它香港三級片下載點這裡
點擊此處在新視窗瀏覽實際大小的圖片
點擊此處瀏覽連結點擊此處註冊後可以免費得到一個750GB的空間獲得高速下載通道:
點擊此處在新視窗瀏覽實際大小的圖片點擊此處瀏覽連結下載點這裡
點擊此處在新視窗瀏覽實際大小的圖片Folder link:點擊此處瀏覽連結http://www.wupload.com/folder/e8f6140b2a6243999 
綁架愛情100天 Slave Love
點擊此處在新視窗瀏覽實際大小的圖片點擊此處瀏覽連結http://www.wupload.com/file/327165573/綁架愛情100天.Slave.Love.avi
點擊此處在新視窗瀏覽實際大小的圖片點擊此處瀏覽連結綁架愛情100天.100.Days.With.Mr.Arrogant.cht.srt繁體中文字幕檔
點擊此處在新視窗瀏覽實際大小的圖片點擊此處瀏覽連結綁架愛情100天.100.Days.With.Mr.Arrogant.chi.srt簡體中文字幕檔
點擊此處在新視窗瀏覽實際大小的圖片點擊此處瀏覽連結綁架愛情100天.100.Days.With.Mr.Arrogant.chi.srt簡體中文字幕檔

點擊此處瀏覽連結分割檔可以使用HJSplit 2.3工具合併
點擊此處在新視窗瀏覽實際大小的圖片HJSplit 2.3 檔案分割、合併、比對 繁體中文免安裝版 下載地址→
點擊此處瀏覽連結下載點這裡
※wupload下載教學※
點擊此處瀏覽連結點擊此處在新視窗瀏覽實際大小的圖片

, , , , , , , ,

Posted by ☜♥☞阿德 at 痞客邦 PIXNET 留言(0) 引用(0) 人氣()