2011 最新上映 李連杰 主演 《白蛇傳說 Its love》高清BD-RMVB國語中字【FS WU】
【片 名】:白蛇傳說 / 法海:白蛇傳說(台) / 白蛇傳說之法海(港)
【英 名】:The Sorcerer and the White Snake / Its love
【年 代】:2011年
【地 區】:中國
【類 型】:動作 / 愛情 / 奇幻 / 古裝 / 鬼怪
【語 言】:國語
【字 幕】:中文
【尺 寸】:1280 x 720
【片 長】:01:36:14
【格 式】:RMVB-H.264 Audio:Cooker-RA-2CH
【格 式】:RMVB
【容 量】:989 MB 2CD
【上 映】:中國大陸 2011年9月28日
【發 行】:中影集團股份有限公司、博納影業有限公司
【導 演】:程小東
【監 製】:崔寶珠
【編 劇】:張炭、曾謹昌、司徒卓漢
【主 演】:李連傑 / 黃聖依 / 林峰 / 蔡卓妍 / 文章 / 徐若瑄 / 姜武 / 楊千嬅 / 杜汶澤 / 羅家英 / 郭羨妮 / 林雪
【IMDB評分】:6.4/10 ( 85,986 votes)
【IMDB鏈接】:點擊此處瀏覽連結http://www.imdb.com/title/tt1857913/
【官方網址】:點擊此處瀏覽連結http://www.baishechuanshuo.com/
【維基百科】:點擊此處瀏覽連結http://zh.wikipedia.org/wiki/白蛇傳說

點擊此處在新視窗瀏覽實際大小的圖片

點擊此處在新視窗瀏覽實際大小的圖片

點擊此處在新視窗瀏覽實際大小的圖片

點擊此處在新視窗瀏覽實際大小的圖片

※劇情簡介※
  大宋南遷,定都臨安,不想山林中有一批妖孽修煉成功,無惡不作,一場人間浩劫就此拉開序幕……金山寺主持法海攜大弟子能忍替天行道,四處捉妖,先與雪妖展開一場惡戰,又遭一群狐妖色誘……
  深山裡歷經千年修煉的白蛇耐不住山間寂寞,與青蛇變幻人形結伴遊歷人間,巧遇許仙心生愛慕之情,許仙不知道她是法力高強的蛇妖。青蛇巧計幫白蛇追求許仙,卻與能忍不期而遇,相見恨晚。誰知蝙蝠妖出洞擾亂百姓,能忍勇敢應戰,卻被蝙蝠妖所傷,中了魔血,幸虧法海及時趕到。
  在青蛇和一群妖友的幫助下,白蛇終於美夢成真,與許仙結為夫妻……能忍中了魔血之後,逐漸變得人魔不分,發現青蛇也是妖後,更是惺惺相惜。法海在端午節追查到白蛇的行蹤,巧施妙計將其捉拿。雙方一場惡戰,驚天動地……最後法海將許仙困在金山寺,白蛇、青蛇並肩殺到,人魔不分的能忍也突然而至,金山寺面臨漫天巨浪的衝擊,一場人、妖、魔、、法、天... (展開全部)   大宋南遷,定都臨安,不想山林中有一批妖孽修煉成功,無惡不作,一場人間浩劫就此拉開序幕……金山寺主持法海攜大弟子能忍替天行道,四處捉妖,先與雪妖展開一場惡戰,又遭一群狐妖色誘……
  深山裡歷經千年修煉的白蛇耐不住山間寂寞,與青蛇變幻人形結伴遊歷人間,巧遇許仙心生愛慕之情,許仙不知道她是法力高強的蛇妖。青蛇巧計幫白蛇追求許仙,卻與能忍不期而遇,相見恨晚。誰知蝙蝠妖出洞擾亂百姓,能忍勇敢應戰,卻被蝙蝠妖所傷,中了魔血,幸虧法海及時趕到。
  在青蛇和一群妖友的幫助下,白蛇終於美夢成真,與許仙結為夫妻……能忍中了魔血之後,逐漸變得人魔不分,發現青蛇也是妖後,更是惺惺相惜。法海在端午節追查到白蛇的行蹤,巧施妙計將其捉拿。雙方一場惡戰,驚天動地……最後法海將許仙困在金山寺,白蛇、青蛇並肩殺到,人魔不分的能忍也突然而至,金山寺面臨漫天巨浪的衝擊,一場人、妖、魔、、法、天的千年決戰拉開了帷幕……   

《白蛇傳說之法海》(英文題字:The Sorcerer and the White Snake)是一部將於2011年9月29日上映的魔幻愛情動作電影,中國大陸先行一日上映。其題材取自中國四大民間傳說之一的《白蛇傳》。官方海報與影片宣傳Logo將該片題字為《白蛇傳說之法海 ITS LOVE》。本片是第68屆威尼斯電影節展映單元的影片之一。
該電影由出品人楊子的中國巨力影視傳媒有限公司投資上億人民幣拍攝,《倩女幽魂》導演程小東執導,亞洲著名製片人崔寶珠監製。「功夫皇帝」李連杰出演法海,白娘子一角由「四小花旦」之一的黃聖依擔當,林峰飾演許仙,蔡卓妍將飾演小青,文章、姜武、徐若瑄、楊千嬅、杜汶澤、羅家英、郭羨妮等眾多中港明星共同出演。

※白蛇傳說 劇照※
點擊此處在新視窗瀏覽實際大小的圖片

點擊此處在新視窗瀏覽實際大小的圖片

點擊此處在新視窗瀏覽實際大小的圖片

點擊此處在新視窗瀏覽實際大小的圖片

※截  圖※
點擊此處在新視窗瀏覽實際大小的圖片
※影片格式詳細資料※
General
Complete name : 白蛇傳說.Its.love.720P.CD_A.rmvb
Format : RealMedia
File size : 510 MiB
Duration : 42mn 0s
Overall bit rate : 1 691 Kbps
Performer : moyea-soft
Video #0
ID : 0
Format : RealVideo 4
Codec ID : RV40
Codec ID/Info : Based on AVC (H.264), Real Player 9
Duration : 41mn 59s
Bit rate : 1 594 Kbps
Width : 1 280 pixels
Height : 720 pixels
Display aspect ratio : 16:9
Frame rate : 23.000 fps
Resolution : 12 bits
Bits/(Pixel*Frame) : 0.075
Stream size : 479 MiB (94%)
Audio #1
ID : 1
Format : Cooker
Codec ID : cook
Codec ID/Info : Based on G.722.1, Real Player 6
Duration : 42mn 0s
Bit rate : 96.5 Kbps
Channel(s) : 2 channels
Sampling rate : 44.1 KHz
Resolution : 16 bits
Stream size : 29.0 MiB (6%)

-------------------------------------------------------------------------------------------------------
下載教學步驟一:
進入下載畫面之後,移動到網頁右下方你會看到"普通下載"的按鈕,選擇按下"普通下載"等一下下會出現識別碼,依照顯示的識別碼輸入即可。

下載教學步驟二:
移動到網頁右上方你會看到倒數的秒數出現,等待秒數完成後按下"普通下載"即可下載。

PS:如果識別碼不清楚可以選擇更新輸入後確定等待約20秒即可下載,下載點不支援 訊雷、快車、BT..等等續傳軟體,請使用IE瀏覽器下載。

點擊此處瀏覽連結下載教學網頁圖片請點這裡
KMPlayer Ver.2.9.4.1436影音播放軟體 (內含加掛MP3插件 無所不播無所不放免安裝版)→ 點擊此處瀏覽連結下載點這裡
FileServe◎Mipony 1.2.2免費空間下載加速工具 地址→ 點擊此處瀏覽連結下載點這裡
xun6◎Mipony 1.2.2免費空間下載加速工具 地址→ 點擊此處瀏覽連結下載點這裡
------------------------------------------------------------------------
2011 最新上映 李連杰 主演 《白蛇傳說 Its love》高清BD-RMVB國語中字
------------------------------------------------------------------------ 
點擊此處瀏覽連結掛機網賺 20dollars2surf,全自動衝浪掛機也可賺錢 點擊此處瀏覽連結※內附完整教學圖※
點擊此處瀏覽連結分割檔可以使用HJSplit 2.3工具合併
點擊此處在新視窗瀏覽實際大小的圖片HJSplit 2.3 檔案分割、合併、比對 繁體中文免安裝版 下載地址→
點擊此處瀏覽連結下載點這裡
點擊此處在新視窗瀏覽實際大小的圖片
BD-720P [RMVB]《白蛇傳說 Its love》下載連結資料夾:
點擊此處在新視窗瀏覽實際大小的圖片
點擊此處瀏覽連結點擊此處注冊後可以免費得到一個500GB的空間獲得高速下載通道: 
點擊此處在新視窗瀏覽實際大小的圖片點擊此處瀏覽連結其它香港三級片下載點這裡
點擊此處在新視窗瀏覽實際大小的圖片
點擊此處瀏覽連結點擊此處註冊後可以免費得到一個750GB的空間獲得高速下載通道:
點擊此處在新視窗瀏覽實際大小的圖片點擊此處瀏覽連結下載點這裡
點擊此處在新視窗瀏覽實際大小的圖片Folder link:點擊此處瀏覽連結http://www.wupload.com/folder/e8f6140b2a6243999 
白蛇傳說 Its love
點擊此處在新視窗瀏覽實際大小的圖片點擊此處瀏覽連結http://www.wupload.com/file/326587865/Its.love.720P.CD_A.rmvb
點擊此處在新視窗瀏覽實際大小的圖片點擊此處瀏覽連結http://www.wupload.com/file/325474258/Its.love.720P.CD_B.rmvb

點擊此處瀏覽連結分割檔可以使用HJSplit 2.3工具合併
點擊此處在新視窗瀏覽實際大小的圖片HJSplit 2.3 檔案分割、合併、比對 繁體中文免安裝版 下載地址→
點擊此處瀏覽連結下載點這裡
※wupload下載教學※
點擊此處瀏覽連結點擊此處在新視窗瀏覽實際大小的圖片

, , , ,

☜♥☞阿德 發表在 痞客邦 PIXNET 留言(0) 人氣()