1998年TVB最新熱播劇集 黎耀祥 《緣來沒法擋 A Measure of Love》【480P高清TV粵語中字】FS WU
【劇 名】:緣來沒法擋
【英 名】:A Measure of Love
【監 制】:莊偉建
【導 演】:莊偉建
【編 審】:邱梅圓
【編 劇】:邱梅圓 
【統 籌】:吳振秋
【日 期】:1998年
【製 作】:1998年
【播出時間】:星期一至五 9:30PM 翡翠台、9:30PM 高清翡翠台
【首播日期】:1998年
【類 型】:時裝愛情喜劇
【製 作】:香港電視廣播有限公司 
【集 數】:20集
【主 演】:黎耀祥(飾 林永青)、林家棟(飾 關家仁)、袁潔瑩(飾 劉可兒)、關寶慧(飾 劉欣兒)、何寶生(飾 郭祖祥)、梁詠琳(飾 Rosa)、湯盈盈(飾 Susan)、趙靜儀(飾 王思思)
【語 言】:粵語
【字 幕】:中文
【格 式】:RMVB
【影片大小】:221 MB
【官方網站】:點擊此處瀏覽連結http://www.tvb.com/tvbi/program/measlove/index_th.htm
【維基百科】:點擊此處瀏覽連結http://zh.wikipedia.org/wiki/緣來沒法擋

點擊此處在新視窗瀏覽實際大小的圖片

點擊此處在新視窗瀏覽實際大小的圖片

※劇情簡介※
關家仁(林家棟)任職收數員,為生計兼職代客泊車,其妻Rosa(梁詠琳)覺仁沒出息,遺下兒子鳴仔一走了之。
關家仁因一次向林永青(黎耀祥)收數,結識了其姨仔劉可兒(袁潔瑩),成了一對鬥氣冤家。關家仁後來轉職地產經紀,沒空照顧兒子鳴仔,以為溫柔體貼的王思思(趙靜儀)可當鳴仔的母親,但終因性格不合而分開。其實,關家仁在不知角覺中已愛上可兒...
另一方面,林永青(黎耀祥)與妻劉欣兒(關寶慧)因買屋問題而鬧至分居,再加上青舊女友出現,二人終離婚收場。但此時,欣竟發現原來已懷有青的骨肉!究竟欣和青能否破鏡重圓?關家仁和可兒又能否發展下去?

人物關係圖↓

點擊此處在新視窗瀏覽實際大小的圖片

點擊此處瀏覽連結※人物詳細介紹※

點擊此處瀏覽連結※雯女、祥仔合唱《只有情永在》※


※劇  照※ 
點擊此處在新視窗瀏覽實際大小的圖片

點擊此處在新視窗瀏覽實際大小的圖片

點擊此處在新視窗瀏覽實際大小的圖片

點擊此處在新視窗瀏覽實際大小的圖片

點擊此處在新視窗瀏覽實際大小的圖片

※截  圖※
點擊此處在新視窗瀏覽實際大小的圖片
※影片格式資訊※
General
Complete name : 緣來沒法擋.A.Measure.of.Love.EP01.rmvb
Format : RealMedia
File size : 221 MiB
Duration : 43mn 36s
Overall bit rate : 710 Kbps
Performer : stTVrip
Copyright : TVB
Video #1
ID : 1
Format : RealVideo 4
Codec ID : RV40
Codec ID/Info : Based on AVC (H.264), Real Player 9
Duration : 43mn 36s
Bit rate : 646 Kbps
Width : 512 pixels
Height : 384 pixels
Display aspect ratio : 4:3
Frame rate : 25.000 fps
Resolution : 12 bits
Bits/(Pixel*Frame) : 0.131
Stream size : 202 MiB (90%)
Audio #0
ID : 0
Format : Cooker
Codec ID : cook
Codec ID/Info : Based on G.722.1, Real Player 6
Duration : 43mn 37s
Bit rate : 64.1 Kbps
Channel(s) : 2 channels
Sampling rate : 44.1 KHz
Resolution : 16 bits
Stream size : 20.0 MiB (9%)

下載教學步驟一:
進入下載畫面之後,移動到網頁右下方你會看到"普通下載"的按鈕,選擇按下"普通下載"等一下下會出現識別碼,依照顯示的識別碼輸入即可。

下載教學步驟二:
移動到網頁右上方你會看到倒數的秒數出現,等待秒數完成後按下"普通下載"即可下載。

PS:如果識別碼不清楚可以選擇更新輸入後確定等待約20秒即可下載,下載點不支援 訊雷、快車、BT..等等續傳軟體,請使用IE瀏覽器下載。

點擊此處瀏覽連結下載教學網頁圖片請點這裡
KMPlayer Ver.2.9.4.1436影音播放軟體 (內含加掛MP3插件 無所不播無所不放免安裝版)→ 點擊此處瀏覽連結下載點這裡
FileServe◎Mipony 1.2.2免費空間下載加速工具 地址→ 點擊此處瀏覽連結下載點這裡
xun6◎Mipony 1.2.2免費空間下載加速工具 地址→ 點擊此處瀏覽連結下載點這裡
-------------------------------------------------------------
1998年TVB最新熱播劇集 黎耀祥 《緣來沒法擋 A Measure of Love》【480P高清TV粵語中字】
-------------------------------------------------------------
點擊此處瀏覽連結點擊此處注冊後可以免費得到一個500GB的空間獲得高速下載通道: 
點擊此處瀏覽連結掛機網賺 20dollars2surf,全自動衝浪掛機也可賺錢 點擊此處瀏覽連結※內附完整教學圖※
點擊此處在新視窗瀏覽實際大小的圖片
HDTV-720P [MKV]
< 緣來沒法擋 A Measure of Love 第01集至20集[所有集數] 下載連結資料夾 >
點擊此處在新視窗瀏覽實際大小的圖片
點擊此處瀏覽連結其他港劇下載點這裡
點擊此處在新視窗瀏覽實際大小的圖片
點擊此處瀏覽連結點擊此處註冊後可以免費得到一個750GB的空間獲得高速下載通道:
緣來沒法擋 A Measure of Lov 20全集 下載連結資料夾 
點擊此處在新視窗瀏覽實際大小的圖片Folder link:點擊此處瀏覽連結http://www.wupload.com/folder/528203
點擊此處在新視窗瀏覽實際大小的圖片1998 TVB 緣來沒法擋 A Measure of Love 點擊此處瀏覽連結http://www.wupload.com/folder/603191
點擊此處瀏覽連結http://www.wupload.com/file/203765257/A.Measure.of.Love.EP01.rmvb
點擊此處瀏覽連結http://www.wupload.com/file/201406744/A.Measure.of.Love.EP02.rmvb
點擊此處瀏覽連結http://www.wupload.com/file/201416712/A.Measure.of.Love.EP03.rmvb
點擊此處瀏覽連結http://www.wupload.com/file/201425646/A.Measure.of.Love.EP04.rmvb
點擊此處瀏覽連結http://www.wupload.com/file/201612748/A.Measure.of.Love.EP05.rmvb
點擊此處瀏覽連結http://www.wupload.com/file/203930680/A.Measure.of.Love.EP06.rmvb
點擊此處瀏覽連結http://www.wupload.com/file/203986193/A.Measure.of.Love.EP07.rmvb
點擊此處瀏覽連結http://www.wupload.com/file/203984979/A.Measure.of.Love.EP08.rmvb
點擊此處瀏覽連結http://www.wupload.com/file/203994143/A.Measure.of.Love.EP09.rmvb
點擊此處瀏覽連結http://www.wupload.com/file/203994142/A.Measure.of.Love.EP10.rmvb
點擊此處瀏覽連結http://www.wupload.com/file/204000636/A.Measure.of.Love.EP11.rmvb
點擊此處瀏覽連結http://www.wupload.com/file/203999673/A.Measure.of.Love.EP12.rmvb
點擊此處瀏覽連結http://www.wupload.com/file/204008996/A.Measure.of.Love.EP13.rmvb
點擊此處瀏覽連結http://www.wupload.com/file/204008452/A.Measure.of.Love.EP14.rmvb
點擊此處瀏覽連結http://www.wupload.com/file/204013888/A.Measure.of.Love.EP15.rmvb
點擊此處瀏覽連結http://www.wupload.com/file/204019636/A.Measure.of.Love.EP16.rmvb
點擊此處瀏覽連結http://www.wupload.com/file/204021905/A.Measure.of.Love.EP17.rmvb
點擊此處瀏覽連結http://www.wupload.com/file/201562419/A.Measure.of.Love.EP18.rmvb
點擊此處瀏覽連結http://www.wupload.com/file/204025808/A.Measure.of.Love.EP18.rmvb
點擊此處瀏覽連結http://www.wupload.com/file/204026735/A.Measure.of.Love.EP19.rmvb
點擊此處瀏覽連結http://www.wupload.com/file/201478065/A.Measure.of.Love.EP19.rmvb
點擊此處瀏覽連結http://www.wupload.com/file/201605864/A.Measure.of.Love.EP20.rmvb
※wupload下載教學※
點擊此處瀏覽連結點擊此處在新視窗瀏覽實際大小的圖片

要一次下載多個檔案,可以在網路上尋找中轉站下載 
各大中轉站的下載速度250K~3M不等(/S每秒下載速度)

, , , ,

☜♥☞阿德 發表在 痞客邦 PIXNET 留言(0) 人氣()