2002 劉青雲 鄭秀文 主演 《我左眼見到鬼 My Left Eye Sees》RD高清 國粵雙語中字 4.36GB收藏版【FS WU】
【片 名】:我左眼見到鬼
【英 名】:My Left Eye Sees
【別 名】:
【年 代】:2002年
【地 區】:中國香港
【類 型】:喜劇 / 愛情 / 劇情 / 恐怖 / 家庭
【級 別】:Hong Kong:普級
【語 言】:國語/粵語
【字 幕】:外掛 繁體中文/英文/簡體中文
【尺 寸】:1280 x 720
【片 長】:01:37:43
【格 式】:MKV-x264 Audio:AC3-5.1CH
【格 式】:MKV
【容 量】:1.36 GB
【上 映】:2002年7月13日
【發 行】:一百年電影有限公司
【製 作】:銀河映像(香港)有限公司製作
【導 演】:杜琪峰 Johnny To、韋家輝 Ka-Fai Wai、羅永昌
【監 製】:杜琪峯、韋家輝、陳明英
【編 劇】:韋家輝 Ka-Fai Wai
【主 演】:劉青雲 Ching Wan Lau、鄭秀文、應采兒、李珊珊、林雪、黃文慧、王天林、任達華、林熙雷
【IMDB評分】:6.8/10 (499 votes)
【IMDB鏈接】:點擊此處瀏覽連結http://www.imdb.com/title/tt0319901
【維基百科】:點擊此處瀏覽連結http://zh.wikipedia.org/wiki/我左眼見到鬼
【演員表】:鄭秀文 Sammi Cheng ....May Ho
      劉青雲 Ching Wan Lau ....Ken Wong
      李珊珊 San-san Lee ....Susan
      林熙蕾 Kelly Lin ....Phantom of Sam's girlfriend
      黃文慧 Man-Wai Wong ....Mrs. Tsui
      林子善 Chi-Sing Lam
      林雪 Suet Lam ....May's dad
      李楓 Fung Li ....Exorcist
      司馬華龍 Wah Lung Szema ....Ghost
      王天林 Tian-lin Wang ....Sam's dad (as Tin Lam Wong)
      任達華 Simon Yam ....Ben
      應采兒 Cherrie Ying ....Tina
點擊此處在新視窗瀏覽實際大小的圖片

※劇情簡介※
何麗珠與才俊丈夫認識七天后結婚,丈夫因意外去世,珠成有錢寡婦。一次意外後,她發現自己左眼可以看見鬼。聲稱是何麗珠小學同學的頑皮鬼王勁威找上了她,使她多行善事。日子越長,一人一鬼建立起真摯友誼。王勁威快要投胎,何麗珠要求見老公一面……
何麗珠(鄭秀文飾)遇到了一個英俊、博學又很有錢的完美男人,他們相識7天之後就閃電結婚,但丈夫卻在婚後不久便去世,於是何麗珠成了富有的寡婦。丈夫的去世使得何麗珠情緒低落,養成了很多缺點。她酗酒、抽煙,說話尖酸刻薄等等,身為公司董事,還經常找藉口不上班。這天,何麗珠又隨口以自己右眼視網膜脫落為藉口請假,當她用紗布敷住右眼走在路上時遇到有人跳樓自殺,然後她發現自己的左眼有特異功能,能看到鬼。各路游魂得知她有這一功能後,紛紛找上門來請她幫忙實現未了的心願。這些鬼中以王勁威(劉青雲飾)最煩人,但相處多日後何麗珠竟對他產生了好感。一日,何麗珠突發奇想,要青雲幫他尋找在陰間的丈夫,但王勁威卻沒有找到,何麗珠因此責怪丈夫狠心地丟下自己早早投胎,於是她也決定重新做人。再後來她的特異功能消失了,卻發現家中處處都留下了王勁威的痕跡,一切仿佛當年結婚時的樣子,原來王勁威就是她丈夫的影子。
  何麗珠(鄭秀文飾)去加勒比海度假,遇上了一名相貌堂堂知書識禮的男子,雖然才相識7天,二人還是閃電結婚。然而好景不長,男子在潛水中不幸喪生,令何麗珠悲傷萬分。
  這段閃電的姻緣卻沒有讓麗珠很快地忘掉丈夫。她沉浸在生活的陰影當中,久久不能自拔。一天她竟偶然發現,自己左眼可以見到鬼。
  在此之後,麗珠遇見王勁威(劉青雲飾)。他自稱是麗珠的小學同學,曾經對她非常的傾心。麗珠開始時嫌他麻煩,然而和他相處過程中,卻屢屢得到他的幫助勸慰,讓她快點醫好丈夫逝去的心病。在王勁威要去投胎之前,麗珠想讓他找來丈夫,見上一面,然而王勁威沒能找回來。
  然而,麗珠卻慢慢發現,自己的心願其實並沒落空,而且生活的希望也在一點點的回到她的心中。

※幕後製作※
相較于杜琪峰歷來淩厲肅殺的槍戰題材,其溫馨可人的文藝小品每每于隨意輕快之間更顯盪氣迴腸,興許更為引人入勝。現在很多人都說,杜琪峰和鄭秀文可算得上是新世紀香港電影最具票房價值的導演和演員,但客觀說來,《我左眼見到鬼》其實只是以鬼片題材進行包裝的愛情劇罷了,沒有什麼太多引人入勝之處。片中玩世不恭的情感基調顯然是港篇駕輕就熟的調侃型絕活,因此一個悲哀的故事中悲傷蕩然無存;鬼片的設計陳腐老套,雖然在左右眼的設計上存有新意,但是構思上卻出現前後斷節的過程,無法達到陰陽的暉映。再加之表演技巧不佳的原因,使得本片水準著實欠佳。

※截  圖※
點擊此處在新視窗瀏覽實際大小的圖片
※影片格式詳細資料※
General
Complete name : 我左眼見到鬼.My.Left.Eye.Sees.Ghosts.2002.BluRay.720p.AC3.2Audio.x264.mkv
Format : Matroska
File size : 4.36 GiB
Duration : 1h 37mn
Overall bit rate : 6 393 Kbps
Encoded date : UTC 2011-08-10 02:57:31
Writing application : mkvmerge v3.2.0 ('Beginnings') 編譯於 Feb 12 2010 16:46:17
Writing library : libebml v0.7.9 + libmatroska v0.8.1
Video #1
ID : 1
Format : AVC
Format/Info : Advanced Video Codec
Codec ID : V_MPEG4/ISO/AVC
Duration : 1h 37mn
Bit rate : 4 986 Kbps
Width : 1 280 pixels
Height : 720 pixels
Display aspect ratio : 16:9
Frame rate : 24.000 fps
Bits/(Pixel*Frame) : 0.225
Stream size : 3.40 GiB (78%)
Title : Move(影片軌)
Language : Chinese
Audio #2
ID : 2
Format : AC-3
Format/Info : Audio Coding 3
Codec ID : A_AC3
Duration : 1h 37mn
Bit rate mode : Constant
Bit rate : 640 Kbps
Channel(s) : 6 channels
Channel positions : Front: L C R, Surround: L R, LFE
Sampling rate : 48.0 KHz
Stream size : 447 MiB (10%)
Title : Cantonese(粵語) AC3 5.1 640Kbps
Language : Chinese
Audio #3
ID : 3
Format : AC-3
Format/Info : Audio Coding 3
Codec ID : A_AC3
Duration : 1h 37mn
Bit rate mode : Constant
Bit rate : 640 Kbps
Channel(s) : 6 channels
Channel positions : Front: L C R, Surround: L R, LFE
Sampling rate : 48.0 KHz
Stream size : 447 MiB (10%)
Title : Mandarin(國語) AC3 5.1 640Kbps
Language : Chinese
-------------------------------------------------------------------------------------------------------
下載教學步驟一:
進入下載畫面之後,移動到網頁右下方你會看到"普通下載"的按鈕,選擇按下"普通下載"等一下下會出現識別碼,依照顯示的識別碼輸入即可。

下載教學步驟二:
移動到網頁右上方你會看到倒數的秒數出現,等待秒數完成後按下"普通下載"即可下載。

PS:如果識別碼不清楚可以選擇更新輸入後確定等待約20秒即可下載,下載點不支援 訊雷、快車、BT..等等續傳軟體,請使用IE瀏覽器下載。

點擊此處瀏覽連結下載教學網頁圖片請點這裡
KMPlayer Ver.2.9.4.1436影音播放軟體 (內含加掛MP3插件 無所不播無所不放免安裝版)→ 點擊此處瀏覽連結下載點這裡
FileServe◎Mipony 1.2.2免費空間下載加速工具 地址→ 點擊此處瀏覽連結下載點這裡
xun6◎Mipony 1.2.2免費空間下載加速工具 地址→ 點擊此處瀏覽連結下載點這裡
------------------------------------------------------------------------
2002 劉青雲 鄭秀文 主演 《我左眼見到鬼 My Left Eye Sees》BD高清 國粵雙語中字
------------------------------------------------------------------------ 
點擊此處瀏覽連結掛機網賺 20dollars2surf,全自動衝浪掛機也可賺錢 點擊此處瀏覽連結※內附完整教學圖※
點擊此處瀏覽連結分割檔可以使用HJSplit 2.3工具合併
點擊此處在新視窗瀏覽實際大小的圖片HJSplit 2.3 檔案分割、合併、比對 繁體中文免安裝版 下載地址→
點擊此處瀏覽連結下載點這裡
點擊此處在新視窗瀏覽實際大小的圖片
BD-720P [MKV]《我左眼見到鬼 My Left Eye See》下載連結資料夾:
點擊此處在新視窗瀏覽實際大小的圖片
點擊此處瀏覽連結點擊此處注冊後可以免費得到一個500GB的空間獲得高速下載通道: 
點擊此處在新視窗瀏覽實際大小的圖片點擊此處瀏覽連結其它香港三級片下載點這裡
點擊此處在新視窗瀏覽實際大小的圖片
點擊此處瀏覽連結點擊此處註冊後可以免費得到一個750GB的空間獲得高速下載通道:
點擊此處在新視窗瀏覽實際大小的圖片點擊此處瀏覽連結下載點這裡
點擊此處在新視窗瀏覽實際大小的圖片Folder link:點擊此處瀏覽連結http://www.wupload.com/folder/528160 
點擊此處瀏覽連結http://www.wupload.com/file/186645156/My.Left.Eye.Sees.Ghosts.2002.BluRay.720p.AC3.2Audio.x264.mkv.001
點擊此處瀏覽連結http://www.wupload.com/file/186632819/My.Left.Eye.Sees.Ghosts.2002.BluRay.720p.AC3.2Audio.x264.mkv.002
點擊此處瀏覽連結http://www.wupload.com/file/186642875/My.Left.Eye.Sees.Ghosts.2002.BluRay.720p.AC3.2Audio.x264.mkv.003
點擊此處瀏覽連結http://www.wupload.com/file/186651385/My.Left.Eye.Sees.Ghosts.2002.BluRay.720p.AC3.2Audio.x264.mkv.004
點擊此處瀏覽連結http://www.wupload.com/file/186653228/My.Left.Eye.Sees.Ghosts.2002.BluRay.720p.AC3.2Audio.x264.mkv.005
點擊此處瀏覽連結http://www.wupload.com/file/186661454/My.Left.Eye.Sees.Ghosts.2002.BluRay.720p.AC3.2Audio.x264.mkv.006
點擊此處瀏覽連結http://www.wupload.com/file/186672033/My.Left.Eye.Sees.Ghosts.2002.BluRay.720p.AC3.2Audio.x264.mkv.007
點擊此處瀏覽連結http://www.wupload.com/file/186738836/My.Left.Eye.Sees.Ghosts.2002.BluRay.720p.AC3.2Audio.x264.mkv.008
點擊此處瀏覽連結http://www.wupload.com/file/186756332/My.Left.Eye.Sees.Ghosts.2002.BluRay.720p.AC3.2Audio.x264.mkv.009
點擊此處瀏覽連結http://www.wupload.com/file/186764331/My.Left.Eye.Sees.Ghosts.2002.BluRay.720p.AC3.2Audio.x264.mkv.010
點擊此處瀏覽連結http://www.wupload.com/file/186768857/My.Left.Eye.Sees.Ghosts.2002.BluRay.720p.AC3.2Audio.x264.mkv.011
點擊此處瀏覽連結http://www.wupload.com/file/186768138/My.Left.Eye.Sees.Ghosts.2002.BluRay.720p.AC3.2Audio.x264.mkv.012
點擊此處瀏覽連結我左眼見到鬼.My.Left.Eye.Sees.Ghosts.2002.BluRay.720p.AC3.2Audio.x264.cht.srt 繁體中文
點擊此處瀏覽連結我左眼見到鬼.My.Left.Eye.Sees.Ghosts.2002.BluRay.720p.AC3.2Audio.x264.chi.srt 簡體中文
點擊此處瀏覽連結我左眼見到鬼.My.Left.Eye.Sees.Ghosts.2002.BluRay.720p.AC3.2Audio.x264.eng.srt 英文字幕
點擊此處瀏覽連結分割檔可以使用HJSplit 2.3工具合併
點擊此處在新視窗瀏覽實際大小的圖片HJSplit 2.3 檔案分割、合併、比對 繁體中文免安裝版 下載地址→
點擊此處瀏覽連結下載點這裡
※wupload下載教學※
點擊此處瀏覽連結點擊此處在新視窗瀏覽實際大小的圖片

, , ,

☜♥☞阿德 發表在 痞客邦 PIXNET 留言(0) 人氣()