2004 劉青雲 梁詠琪 主演 《絕世好賓 Driving Miss Wealthy》RD高清 國粵雙語中字【FS WU】
【片 名】:絕世好賓/窈窕淑女
【英 名】:Driving Miss Wealthy
【別 名】:
【年 代】:2004年
【地 區】:中國香港
【類 型】:喜劇 / 愛情 / 劇情 
【級 別】:Hong Kong:普級
【語 言】:國語/粵語
【字 幕】:繁體中文/英文/簡體中文
【尺 寸】:716 x 480
【片 長】:01:31:22
【格 式】:MKV-x264 Audio:AC3
【格 式】:MKV
【容 量】:1.36 GB
【上 映】:2004年3月23日
【發 行】:一百年電影有限公司
【製 作】:無限映畫製作有限公司
【導 演】:阮世生 James Yuen
【監 製】:爾冬陞、方平、陳明英
【編 劇】:阮世生、方晴、羅耀輝
【主 演】:詹瑞文 Sui-man Chim
      周驄 Chung Chow ....Feng Kwok-Lap
      方家煌 Henry Fong
      許紹雄 Shiu Hung Hui ....Kit's superior (as Siu-Hung Hui)
      江美儀 Elena Kong ....(voice)
      劉青雲 Ching Wan Lau ....Mario/Kit
      劉以達 Tats Lau
      羅冠蘭 Koon-Lan Law
      梁詠琪 Gigi Leung ....Jennifer
      陸劍明 Jamie Luk
【IMDB評分】:6.5/10 (142 votes)
【IMDB鏈接】:點擊此處瀏覽連結http://www.imdb.com/title/tt0431733
【維基百科】:點擊此處瀏覽連結http://zh.wikipedia.org/wiki/絕世好賓

點擊此處在新視窗瀏覽實際大小的圖片

※劇情簡介※
「隱形百億富豪」方國立聘請保鏢,陳志傑(劉青雲飾演傑)往應徵,傑曾是警隊精英,後來輾轉成為保鏢、泰國拳手。方國立選中傑成為他獨生女Jennifer(梁詠琪飾演)的保鏢,扮作賓賓司機,化名Mario。
傑發現Jennifer雖然是一擲千金的金枝玉葉,但其實她全無架子,而且善良樂天,對朋友疏財,對父親孝順,只是價值觀與一般人不同!
方國立「望女成鳳」,想女兒嘗試捱苦的滋味,做個獨立有用的人。阿傑展開「特別任務」,方國立假扮心臟病發,昏迷不醒,所有財產被私人助理寶雯侵吞。寶雯更將Jennifer趕走,Jennifer唯有搬往深水埗舊樓祖屋,成為「落難千金」。
Mario帶Jennifer來到深水埗舊區,她嫌祖屋舊樓又細又髒,不肯入住,Jennifer變賣僅餘的名牌手袋來套現,可惜卻在街頭被「祈福黨」騙去所有財物!Jennifer無意中發現了父親的奮鬥格言,她終於醒覺,決定與Mario一起在祖屋住下來。
億萬富豪萬國立請來了曾是警隊中精英的陳志傑(劉青雲飾)來保護他的獨生女兒Jennifer(梁詠琪飾)。由於Jennifer不喜歡有人監視她,所以志傑必須假扮成一個服侍Jennifer的菲律賓男傭Mario從而得到豐厚的酬勞。與Jennifer相處的過程中,志傑發現她是一個非常單純的女孩子,身邊沒有朋友,全部都是沖著她的錢來的,她每天更是揮霍無度。因此她的父親萬國立決定以病重及破產為理由,以欺騙女兒,好讓她學會自立更新。
Jennifer剛開始搬到一般草根階層居住的社區時,非常不習慣,當她困於生活,需要樣樣親歷親為的時候,她發現了父親白手起家的不容易,她誓要把病重的父親治好,努力掙錢。她與Mario同共患難,彼此間有了深厚的感情,當她知道原來一切都是好心欺騙她的時候,她也正好面對了自己對志傑的感情。

※截  圖※
點擊此處在新視窗瀏覽實際大小的圖片
※影片格式詳細資料※
General
Complete name : 絕世好賓.Driving.Miss.Wealthy.2004.R3.HK.DVDRip.x264.2Audio.AC3.mkv
Format : Matroska
File size : 1.36 GiB
Duration : 1h 42mn
Overall bit rate : 1 901 Kbps
Encoded date : UTC 2011-09-18 00:52:05
Writing application : mkvmerge v4.8.0 ('I Got The...') 編譯於 May 24 2011 03:12:58
Writing library : libebml v1.2.0 + libmatroska v1.1.0
Video #1
ID : 1
Format : AVC
Format/Info : Advanced Video Codec
Format profile : High@L4.0
Format settings, CABAC : Yes
Format settings, ReFrames : 16 frames
Muxing mode : Container profile=Unknown@4.0
Codec ID : V_MPEG4/ISO/AVC
Duration : 1h 42mn
Bit rate : 1 287 Kbps
Nominal bit rate : 1 325 Kbps
Width : 716 pixels
Height : 480 pixels
Display aspect ratio : 16:9
Frame rate : 23.976 fps
Resolution : 24 bits
Colorimetry : 4:2:0
Scan type : Progressive
Bits/(Pixel*Frame) : 0.156
Stream size : 945 MiB (68%)
Title : Move(影片軌)
Writing library : x264 core 114 r1924 08d04a4
Encoding settings : cabac=1 / ref=16 / deblock=1:-2:-1 / analyse=0x3:0x133 / me=umh / subme=9 / psy=1 / psy_rd=1.00:0.00 / mixed_ref=1 / me_range=32 / chroma_me=1 / trellis=1 / 8x8dct=1 / cqm=0 / deadzone=21,11 / fast_pskip=0 / chroma_qp_offset=-2 / threads=12 / sliced_threads=0 / nr=0 / decimate=0 / interlaced=0 / constrained_intra=0 / bframes=16 / b_pyramid=2 / b_adapt=2 / b_bias=0 / direct=1 / weightb=1 / open_gop=0 / weightp=2 / keyint=250 / keyint_min=23 / scenecut=40 / intra_refresh=0 / rc_lookahead=50 / rc=2pass / mbtree=1 / bitrate=1325 / ratetol=4.0 / qcomp=0.60 / qpmin=10 / qpmax=69 / qpstep=4 / cplxblur=20.0 / qblur=0.5 / ip_ratio=1.40 / aq=1:0.50
Language : Chinese
Audio #2
ID : 2
Format : AC-3
Format/Info : Audio Coding 3
Codec ID : A_AC3
Duration : 1h 42mn
Bit rate mode : Constant
Bit rate : 384 Kbps
Channel(s) : 6 channels
Channel positions : Front: L C R, Surround: L R, LFE
Sampling rate : 48.0 KHz
Stream size : 282 MiB (20%)
Title : Cantonese(粵語)
Language : Chinese
Audio #3
ID : 3
Format : AC-3
Format/Info : Audio Coding 3
Codec ID : A_AC3
Duration : 1h 42mn
Bit rate mode : Constant
Bit rate : 192 Kbps
Channel(s) : 2 channels
Channel positions : L R
Sampling rate : 48.0 KHz
Stream size : 141 MiB (10%)
Title : Mandarin(國語)
Language : Chinese
Text #4
ID : 4
Format : UTF-8
Codec ID : S_TEXT/UTF8
Codec ID/Info : UTF-8 Plain Text
Title : CHT(繁體中文)
Language : Chinese
Text #5
ID : 5
Format : UTF-8
Codec ID : S_TEXT/UTF8
Codec ID/Info : UTF-8 Plain Text
Title : CHS(簡體中文)
Language : Chinese
Text #6
ID : 6
Format : UTF-8
Codec ID : S_TEXT/UTF8
Codec ID/Info : UTF-8 Plain Text
Title : ENG(英文字幕)
-------------------------------------------------------------------------------------------------------
下載教學步驟一:
進入下載畫面之後,移動到網頁右下方你會看到"普通下載"的按鈕,選擇按下"普通下載"等一下下會出現識別碼,依照顯示的識別碼輸入即可。

下載教學步驟二:
移動到網頁右上方你會看到倒數的秒數出現,等待秒數完成後按下"普通下載"即可下載。

PS:如果識別碼不清楚可以選擇更新輸入後確定等待約20秒即可下載,下載點不支援 訊雷、快車、BT..等等續傳軟體,請使用IE瀏覽器下載。

點擊此處瀏覽連結下載教學網頁圖片請點這裡
KMPlayer Ver.2.9.4.1436影音播放軟體 (內含加掛MP3插件 無所不播無所不放免安裝版)→ 點擊此處瀏覽連結下載點這裡
FileServe◎Mipony 1.2.2免費空間下載加速工具 地址→ 點擊此處瀏覽連結下載點這裡
xun6◎Mipony 1.2.2免費空間下載加速工具 地址→ 點擊此處瀏覽連結下載點這裡
------------------------------------------------------------------------
2004 劉青雲 梁詠琪 主演 《絕世好賓 Driving Miss Wealthy》RD高清 國粵雙語中字
------------------------------------------------------------------------ 
點擊此處瀏覽連結掛機網賺 20dollars2surf,全自動衝浪掛機也可賺錢 點擊此處瀏覽連結※內附完整教學圖※
點擊此處瀏覽連結分割檔可以使用HJSplit 2.3工具合併
點擊此處在新視窗瀏覽實際大小的圖片HJSplit 2.3 檔案分割、合併、比對 繁體中文免安裝版 下載地址→
點擊此處瀏覽連結下載點這裡
點擊此處在新視窗瀏覽實際大小的圖片
BD-720P [MKV]《絕世好賓 Driving Miss Wealthy》下載連結資料夾:
點擊此處在新視窗瀏覽實際大小的圖片
點擊此處瀏覽連結點擊此處注冊後可以免費得到一個500GB的空間獲得高速下載通道: 
點擊此處在新視窗瀏覽實際大小的圖片點擊此處瀏覽連結其它香港三級片下載點這裡
點擊此處在新視窗瀏覽實際大小的圖片
點擊此處瀏覽連結點擊此處註冊後可以免費得到一個750GB的空間獲得高速下載通道:
點擊此處在新視窗瀏覽實際大小的圖片點擊此處瀏覽連結下載點這裡
點擊此處在新視窗瀏覽實際大小的圖片Folder link:點擊此處瀏覽連結http://www.wupload.com/folder/528160 
點擊此處瀏覽連結http://www.wupload.com/file/186612411/Driving.Miss.Wealthy.2004.R3.HK.DVDRip.x264.2Audio.AC3.mkv.001
點擊此處瀏覽連結http://www.wupload.com/file/186624952/Driving.Miss.Wealthy.2004.R3.HK.DVDRip.x264.2Audio.AC3.mkv.002
點擊此處瀏覽連結分割檔可以使用HJSplit 2.3工具合併
點擊此處在新視窗瀏覽實際大小的圖片HJSplit 2.3 檔案分割、合併、比對 繁體中文免安裝版 下載地址→
點擊此處瀏覽連結下載點這裡
※wupload下載教學※
點擊此處瀏覽連結點擊此處在新視窗瀏覽實際大小的圖片

, , ,

☜♥☞阿德 發表在 痞客邦 PIXNET 留言(0) 人氣()