2008 TVB 歐陽震華主演《尖子攻略 Your Class or Mine》高清BD-720P粵語中字【FS WU】
【片 名】:尖子攻略
【年 代】:2008年
【地 區】:中國香港
【類 型】:時裝 / 劇情 
【語 言】:粵語
【字 幕】:外掛中文 (回覆留言即可見到下載點)
【製 作】:香港電視廣播有限公司 
【集 數】:20集
【日 期】:2008年8月25日-9月19日
【製 作】:2008年1月至2008年4月
【接 檔】:當狗愛上貓 ←→上一檔:8月15日 / 下一檔:9月22日 ←→ 少年四大名捕
【尺 寸】:1280 x 720
【片 長】:00:43:45
【格 式】:MKV-x264 Audio:AC3-5.1CH
【格 式】:MKV
【容 量】:1.04 GB
【編 導】:文偉鴻、劉順安、葉鎮輝、林建渭
【監 製】:張乾文
【編 劇】:李綺華、鍾正龍、劉芷韻、黎倩儀、招美兒、黃曉莊、黃小龍
【統 籌】:李婉嫺
【編 審】:劉彩雲、盧美雲、李綺華
【主 演】:歐陽震華、鄧萃雯、郭政鴻、許紹雄、羅仲謙、梁証嘉、梁烈唯、袁偉豪
【播出時間】:星期一至五 8:30PM 翡翠台、8:30PM 高清翡翠台
【首播日期】:2008年8月25日
【官方網站】:點擊此處瀏覽連結http://tvcity.tvb.com/drama/yourclassormine/index.html
【維基百科】:點擊此處瀏覽連結http://zh.wikipedia.org/wiki/尖子攻略
【播 放】:高清播放與具體劇情介紹 

點擊此處在新視窗瀏覽實際大小的圖片

※劇情簡介※
水貨王三寶拼A神
彭錦秋曾是每月賺數以百萬計的水貨王,但因太過心雄,錯算之下令生意陷入困境,女友更挾帶私逃,令錦秋變成一無所有。
偶然下,錦秋得知曾與他合作賣水貨的連長勝,正於一支剛從丙組升上乙組的傳奇球隊當兼職球員,而球隊的贊助人程國柱正準備與一新冒起的國際運動品牌簽約,打算以球隊作亞洲地區的廣告代表,而球隊的基謹三寶樊沛冬、陳力奔、林亦單更會力捧為代言人。錦秋認定此為翻身機會,於是扮成球迷令球隊班主兼教練樊大偉讓他成為球隊的營運總監,而程國柱為了完成一紙合約,被迫跟錦秋合作,分享合約的利潤。
豈料基謹三寶因要應付會考而準備離隊,錦秋為令他們留下,便開設「特訓班」,答允能令大家考取20分!同時國柱為了完成合約,替錦秋找來有A神之稱、香港著名的私人補習導師嚴家勵幫忙。
家勵一直只收名校學生,還教出不少十A狀元,有A神之稱譽。但遇著一班完全不是讀書料子的學生,也教她束手無策。而錦秋卻威脅家勵正就讀名校中五的妹妹家樂提供名校試卷,務求令沛冬等人有所進步,因此家勵與錦秋在教學上出現分歧。
智商與情商
錦秋後來發現大偉已歿的太太正是自己的母親,而沛冬竟是自己同母異父的弟弟!錦秋以為當年母親是為了錢而跟其父離婚,因此對大偉及沛冬經常加以刁難,相反大偉知道錦秋是亡妻之子後,視他如兒子般關心,只是錦秋不肯接受。為了不想影響沛冬,兩個大男人決定將真相隱瞞。
錦秋無意中發現了已婚的國柱與家勵的秘密戀情,於是乘機要脅兩人以得到著數,但後來因錦秋的不小心,令他倆之戀情暴光。一向視家勵為偶像的妹妹家明及家樂霎時間偶像幻滅,家明更離家出走,加上大哥大嫂責難、學生家長的追究,家勵一時間也不知如何面對。
錦秋後來明白家勵對國柱是真心的,並非如他所想的是為了錢,因而對家勵由憐生愛,只是認定家勵對國柱死心塌地,只好將這份感覺收起。其實家勵也開始對錦秋產生好感,只是她同樣認定錦秋不會喜歡自己,令這段感情不能作進一步發展。離開了國柱後,家勵打算專心發展補習事業,與錦秋訂下合作協議,希望令沛冬等人考得好成績、擦靚招牌,然後大攪補習學校。兩人不只開展了一段合作關係,還是一段互相關心扶持的關係。
受了家勵及沛冬一班波牛影響,錦秋終於明白親人朋友的寶貴,最後接受了大偉,建立起亦父亦友的關係,但正值會考前夕,二人不想影響沛冬,仍然堅持保守這個秘密。但在這時國柱竟令家勵家人陷入財政困境、又令特訓班成員相繼惹上麻煩、甚至將錦秋跟沛冬的真正關係告訴沛冬,令特訓班臨考試前夕潰不成軍!錦秋知道一切都是因國柱輸不起、想家勵返回身邊而起,毅然跟國柱講數,說可以放棄球隊,也可以放棄翻身機會,只要國柱肯放家勵及沛冬等人一馬! 到底國柱會否就此罷手?家勵又會否屈服、為了家人及錦秋等回到國柱身邊?沛冬是否接受錦秋是自己兄長的事實?眾特訓班成員又能否成功在會考中取得20分?

人物關係圖↓
點擊此處在新視窗瀏覽實際大小的圖片

點擊此處瀏覽連結※人物詳細介紹※

點擊此處瀏覽連結※精采片段影片 基謹精神 攞A齊心※

點擊此處瀏覽連結※精采片段影片 長勝英文嚇怕carmen※

點擊此處瀏覽連結※精采片段影片 新不如舊的愛情理論※

※劇  照※ 
點擊此處在新視窗瀏覽實際大小的圖片

點擊此處在新視窗瀏覽實際大小的圖片

點擊此處在新視窗瀏覽實際大小的圖片

※截  圖※
點擊此處在新視窗瀏覽實際大小的圖片
※影片格式詳細資料※
General
Complete name : 尖子攻略.Your.Class.or.Mine.EP01.X264.720P.AC3.mkv
Format : Matroska
File size : 1.04 GiB
Duration : 43mn 45s
Overall bit rate : 3 388 Kbps
Encoded date : UTC 2008-08-26 10:27:13
Writing application : mkvmerge v2.1.0 ('Another Place To Fall') built on Aug 19 2007 13:40:07
Writing library : libebml v0.7.7 + libmatroska v0.8.1
Video #1
ID : 1
Format : AVC
Format/Info : Advanced Video Codec
Format profile : Main@L5.1
Format settings, CABAC : Yes
Format settings, ReFrames : 1 frame
Muxing mode : Container profile=Unknown@5.1
Codec ID : V_MPEG4/ISO/AVC
Duration : 43mn 45s
Bit rate : 2 936 Kbps
Nominal bit rate : 3 000 Kbps
Width : 1 280 pixels
Height : 720 pixels
Display aspect ratio : 16:9
Frame rate : 25.000 fps
Resolution : 24 bits
Colorimetry : 4:2:0
Scan type : Progressive
Bits/(Pixel*Frame) : 0.127
Stream size : 919 MiB (87%)
Writing library : x264 core 60 r901M 58d7d06
Encoding settings : cabac=1 / ref=1 / deblock=1:0:0 / analyse=0x1:0x111 / me=hex / subme=5 / rdcmp=psy / brdo=0 / mixed_ref=0 / me_range=16 / chroma_me=1 / trellis=0 / 8x8dct=0 / cqm=0 / deadzone=21,11 / chroma_qp_offset=0 / threads=6 / nr=0 / decimate=1 / mbaff=0 / bframes=0 / keyint=250 / keyint_min=25 / scenecut=40(pre) / rc=2pass / bitrate=3000 / ratetol=1.0 / rceq='blurCplx^(1-qComp)' / qcomp=1.00 / qpmin=10 / qpmax=51 / qpstep=4 / cplxblur=20.0 / qblur=0.5 / ip_ratio=1.40 / aq=2:1.00
Audio #2
ID : 2
Format : AC-3
Format/Info : Audio Coding 3
Codec ID : A_AC3
Duration : 43mn 45s
Bit rate mode : Constant
Bit rate : 384 Kbps
Channel(s) : 6 channels
Channel positions : Front: L C R, Surround: L R, LFE
Sampling rate : 48.0 KHz
Stream size : 120 MiB (11%)
-------------------------------------------------------------------------------------------------------
下載教學步驟一:
進入下載畫面之後,移動到網頁右下方你會看到"普通下載"的按鈕,選擇按下"普通下載"等一下下會出現識別碼,依照顯示的識別碼輸入即可。

下載教學步驟二:
移動到網頁右上方你會看到倒數的秒數出現,等待秒數完成後按下"普通下載"即可下載。

PS:如果識別碼不清楚可以選擇更新輸入後確定等待約20秒即可下載,下載點不支援 訊雷、快車、BT..等等續傳軟體,請使用IE瀏覽器下載。

點擊此處瀏覽連結下載教學網頁圖片請點這裡
KMPlayer Ver.2.9.4.1436影音播放軟體 (內含加掛MP3插件 無所不播無所不放免安裝版)→ 點擊此處瀏覽連結下載點這裡
FileServe◎Mipony 1.2.2免費空間下載加速工具 地址→ 點擊此處瀏覽連結下載點這裡
xun6◎Mipony 1.2.2免費空間下載加速工具 地址→ 點擊此處瀏覽連結下載點這裡
------------------------------------------------------------------------
2008 TVB 歐陽震華主演《尖子攻略 Your Class or Mine》高清BD-720P粵語中字
------------------------------------------------------------------------ 
點擊此處瀏覽連結掛機網賺 20dollars2surf,全自動衝浪掛機也可賺錢 點擊此處瀏覽連結※內附完整教學圖※
點擊此處瀏覽連結分割檔可以使用HJSplit 2.3工具合併
點擊此處在新視窗瀏覽實際大小的圖片HJSplit 2.3 檔案分割、合併、比對 繁體中文免安裝版 下載地址→
點擊此處瀏覽連結下載點這裡
點擊此處在新視窗瀏覽實際大小的圖片
HDTV-720P [MKV]
《 尖子攻略 Your Class or Mine 第01集至20集[所有集數] 下載連結資料夾 》:
點擊此處在新視窗瀏覽實際大小的圖片
點擊此處瀏覽連結點擊此處注冊後可以免費得到一個500GB的空間獲得高速下載通道: 
點擊此處瀏覽連結其他港劇下載點這裡
點擊此處在新視窗瀏覽實際大小的圖片
點擊此處瀏覽連結點擊此處註冊後可以免費得到一個750GB的空間獲得高速下載通道:
點擊此處在新視窗瀏覽實際大小的圖片點擊此處瀏覽連結下載點這裡
點擊此處在新視窗瀏覽實際大小的圖片Folder link:點擊此處瀏覽連結http://www.wupload.com/folder/528203
點擊此處瀏覽連結http://www.wupload.com/file/186264985/Your.Class.or.Mine.EP01.X264.720P.AC3.mkv
點擊此處瀏覽連結http://www.wupload.com/file/184315385/Your.Class.or.Mine.EP02.X264.720P.AC3.mkv
點擊此處瀏覽連結http://www.wupload.com/file/186277685/Your.Class.or.Mine.EP03.X264.720P.AC3.mkv
點擊此處瀏覽連結http://www.wupload.com/file/184475874/Your.Class.or.Mine.EP04.X264.720P.AC3.mkv
點擊此處瀏覽連結http://www.wupload.com/file/186377759/Your.Class.or.Mine.EP05.X264.720P.AC3.mkv
點擊此處瀏覽連結http://www.wupload.com/file/184534181/Your.Class.or.Mine.EP06.X264.720P.AC3.mkv
點擊此處瀏覽連結http://www.wupload.com/file/184723858/Your.Class.or.Mine.EP07.X264.720P.AC3.mkv
點擊此處瀏覽連結http://www.wupload.com/file/184915598/Your.Class.or.Mine.EP08.X264.720P.AC3.mkv
點擊此處瀏覽連結http://www.wupload.com/file/185055924/Your.Class.or.Mine.EP09.X264.720P.AC3.mkv
點擊此處瀏覽連結http://www.wupload.com/file/185105887/Your.Class.or.Mine.EP10.X264.720P.AC3.mkv
點擊此處瀏覽連結http://www.wupload.com/file/185143040/Your.Class.or.Mine.EP11.X264.720P.AC3.mkv
點擊此處瀏覽連結http://www.wupload.com/file/185164389/Your.Class.or.Mine.EP12.X264.720P.AC3.mkv
點擊此處瀏覽連結http://www.wupload.com/file/186157439/Your.Class.or.Mine.EP13.X264.720P.AC3.mkv
點擊此處瀏覽連結http://www.wupload.com/file/186176187/Your.Class.or.Mine.EP14.X264.720P.AC3.mkv
點擊此處瀏覽連結http://www.wupload.com/file/186198944/Your.Class.or.Mine.EP15.X264.720P.AC3.mkv
點擊此處瀏覽連結http://www.wupload.com/file/186207723/Your.Class.or.Mine.EP16.X264.720P.AC3.mkv
點擊此處瀏覽連結http://www.wupload.com/file/186383255/Your.Class.or.Mine.EP17.X264.720P.AC3.mkv
點擊此處瀏覽連結http://www.wupload.com/file/186499682/Your.Class.or.Mine.EP18.X264.720P.AC3.mkv
點擊此處瀏覽連結http://www.wupload.com/file/186518454/Your.Class.or.Mine.EP19.X264.720P.AC3.mkv
點擊此處瀏覽連結http://www.wupload.com/file/186615364/Your.Class.or.Mine.EP20.X264.720P.AC3.mkv
※如需下載 尖子攻略 Your Class or Min 字幕檔,回覆後即可見到下載點
尖子攻略 Your Class or Mine 繁體中文字幕檔 Subtilte srt下載
尖子攻略 Your Class or Mine 簡體中文字幕檔 Subtilte srt下載
Your.Class.or.Mine.EP01~EP20.X264.720P.AC3.cht.srt 繁體中文
Your.Class.or.Mine.EP01~EP20.X264.720P.AC3.chi.srt 簡體中文
點擊此處瀏覽連結分割檔可以使用HJSplit 2.3工具合併
點擊此處在新視窗瀏覽實際大小的圖片HJSplit 2.3 檔案分割、合併、比對 繁體中文免安裝版 下載地址→
點擊此處瀏覽連結下載點這裡
※wupload下載教學※
點擊此處瀏覽連結點擊此處在新視窗瀏覽實際大小的圖片

, ,

☜♥☞阿德 發表在 痞客邦 PIXNET 留言(0) 人氣()