2011最新上映 任達華 伊能靜 喜劇大片《回馬槍 Coming Back》高清BD國語中字【FS WU】
【片 名】:回馬槍
【英 名】:Coming Back
【別 名】:Hui Ma Qiang
【年 代】:2011年
【地 區】:中國香港
【類 型】:動作 / 劇情 / 犯罪 / 喜劇
【語 言】:國語
【字 幕】:中文
【尺 寸】:1024 x 512
【片 長】:01:30:33
【格 式】:RMVB-x264 Audio:AC3-5.1CH
【格 式】:RMVB
【容 量】:848 MB
【上 映】:2011年7月15日
【發 行】:天銘嘉業文化傳媒投資有限公司/北京華世金輝影視科技有限公司
【導 演】:李遠
【主 演】:任達華、伊能靜、高捷、夏德俊、鄭佩佩、尚雯婕、戚薇、王大奇
【IMDB評分】:1/10 (5 votes)
【IMDB鏈接】:點擊此處瀏覽連結http://www.imdb.com/title/tt1967478/
【維基百科】:點擊此處瀏覽連結http://zh.wikipedia.org/wiki/回馬槍

點擊此處在新視窗瀏覽實際大小的圖片

點擊此處在新視窗瀏覽實際大小的圖片

※劇情簡介※
退隱江湖的修畫高手李貞木(任達華飾),無意間成為眾人眼裡的「獵物」:性感美女閔悅(伊能靜飾)向他投懷送抱,李貞木春意盎然際,卻發現對方醉翁之意不在酒;失散多年的女兒意外現身,令李貞木心生暖意,然而親生骨肉千里尋父竟是為了置他於死地……
  這一切的一切,都源於一幅價值連城的古畫,以及一段唐朝的曠世傳奇。老謀深算者屢屢落空,費盡心機者滿盤皆輸,為奪回寶物,所有人馬費盡周折,而當一切水落石出時,盜寶案的幕後主謀竟是……

犯罪喜劇片《回馬槍》講述“以彼之'盜',還施彼身”的高智商犯罪主題故事,由天銘嘉業文化傳媒投資有限公司投資,李遠導演,任達華、伊能靜等主演,於2011年7月15日公映。
  犯罪喜劇片《回馬槍》由任達華、伊能靜、高捷、尚雯婕、鄭佩佩等領銜主演,電影於2011年7月上映。
  任達華在片中飾演一中年男子,頻遭艷遇卻處處陷阱,面對情感糾葛他又分身有術。有時他是一個好父親,有時又是一個懦弱的獵物,有時又成為一個力挽狂瀾的英雄。據製片方介紹,任達華於獲獎第二天便與劇組簽訂合同,因為對《回馬槍》劇本情有獨鍾。
《回馬槍》講述了任達華飾演的江湖高手,因痴迷修畫導致妻離子散,但退隱變身香水專家的他,卻發現自己陷入一個連環迷局:蘭花盜團伙威逼利誘;美女投怀送抱卻另有目的;失散多年的女兒意外現身竟是為了置他於死地……而這都源於一幅價值連城的古畫,以及一段唐朝的曠世傳奇。

由任達華、伊能靜、高捷、尚雯婕、鄭佩佩等領銜主演的犯罪喜劇《回馬槍》,即將於7月上映,昨日片方再曝一組激情戲劇照和片花,伊能靜在《回馬槍》片花中和任達華上演浴缸濕身纏綿一幕,其突破自我的大尺度發揮,堪稱伊能靜從影以來最出位的一次表演。

  扮蘭花盜施美人計

  在這部融合了犯罪盜寶、動作喜劇、愛情親情等諸多元素的影片《回馬槍》中,“一枝花”伊能靜被導演委以重任,專攻色誘戲份。據伊能靜介紹,為了盜取一幅價值不菲的古畫,犯罪集團“蘭花盜”對任達華飾演的神秘人物李貞木展開接二連三攻擊,而作為“蘭花盜”中的當家花旦,她扮演的冷艷女賊“閔悅”用性感作為殺手鐧,使盡美人計欲將李貞木“拿下”。

  不敢讓兒子看《回馬槍》

  在昨日曝光的劇照中,有段任達華與伊能靜 “清爽上陣”,在浴缸中嬉水挑逗的鼻血戲份。據介紹,拍攝時,為了讓浴缸中營造豐富的泡沫效果,道具師不得不將沐浴露換成了粘稠的洗碗劑,但這絲毫沒有影響兩位演員的興緻,為了體現最好的“色誘”效果,任達華和伊能靜一遍遍地拍,直到導演喊“咔”,在洗碗劑中泡得身上有些過敏的伊能靜才冒出了一句“這個戲可不能帶着我兒子一起看。”

  任達華“遮春光”功夫一流

  首次如此大尺度地拍攝“露骨”鏡頭,伊能靜難免有些抵觸。為了謹慎起見,伊能靜在片場做足了保護措施,導演李遠也揶揄她是穿了“金鐘罩鐵布衫”。裹得太嚴實的後果,就是實拍時伊能靜不停穿幫,NG多次後,多虧任達華及時救美,親自為伊能靜設計了一整套動作,並用自己的身體擋住了伊能靜的關鍵部位。此舉既防止了鏡頭春光乍泄,也保證了激情戲的質量,為此,伊能靜坦言“非常感謝任達華的紳士行為,能與他合作,我真的很幸運。”

《回馬槍》曝伊能靜激情戲 浴缸裸誘任達華(圖)
點擊此處在新視窗瀏覽實際大小的圖片
伊能靜大露背

點擊此處在新視窗瀏覽實際大小的圖片
伊能靜任達華親熱

點擊此處在新視窗瀏覽實際大小的圖片
伊能靜浴缸中
※截  圖※
點擊此處在新視窗瀏覽實際大小的圖片
※影片格式詳細資料※
General
Complete name : 回馬槍.Coming Back BD 720P.rmvb
Format : RealMedia
File size : 848 MiB
Duration : 1h 30mn
Overall bit rate : 1 287 Kbps
Video #1
ID : 1
Format : RealVideo 4
Codec ID : RV40
Codec ID/Info : Based on AVC (H.264), Real Player 9
Duration : 1h 30mn
Bit rate : 1 159 Kbps
Width : 1 024 pixels
Height : 516 pixels
Display aspect ratio : 1.984
Frame rate : 23.000 fps
Resolution : 12 bits
Bits/(Pixel*Frame) : 0.095
Stream size : 751 MiB (89%)
Audio #0
ID : 0
Format : AAC
Format/Info : Advanced Audio Codec
Codec ID : raac
Codec ID/Info : Real Player 9
Duration : 1h 30mn
Bit rate : 128 Kbps
Channel(s) : 2 channels
Sampling rate : 44.1 KHz
Resolution : 16 bits
Stream size : 82.9 MiB (10%) 
-------------------------------------------------------------------------------------------------------
下載教學步驟一:
進入下載畫面之後,移動到網頁右下方你會看到"普通下載"的按鈕,選擇按下"普通下載"等一下下會出現識別碼,依照顯示的識別碼輸入即可。

下載教學步驟二:
移動到網頁右上方你會看到倒數的秒數出現,等待秒數完成後按下"普通下載"即可下載。

PS:如果識別碼不清楚可以選擇更新輸入後確定等待約20秒即可下載,下載點不支援 訊雷、快車、BT..等等續傳軟體,請使用IE瀏覽器下載。

點擊此處瀏覽連結下載教學網頁圖片請點這裡
KMPlayer Ver.2.9.4.1436影音播放軟體 (內含加掛MP3插件 無所不播無所不放免安裝版)→ 點擊此處瀏覽連結下載點這裡
FileServe◎Mipony 1.2.2免費空間下載加速工具 地址→ 點擊此處瀏覽連結下載點這裡
xun6◎Mipony 1.2.2免費空間下載加速工具 地址→ 點擊此處瀏覽連結下載點這裡
------------------------------------------------------------------------
2011最新上映任達華 伊能靜 喜劇大片《回馬槍 Coming Back》高清BD國語中字
------------------------------------------------------------------------ 
點擊此處瀏覽連結掛機網賺 20dollars2surf,全自動衝浪掛機也可賺錢 點擊此處瀏覽連結※內附完整教學圖※
點擊此處瀏覽連結分割檔可以使用HJSplit 2.3工具合併
點擊此處在新視窗瀏覽實際大小的圖片HJSplit 2.3 檔案分割、合併、比對 繁體中文免安裝版 下載地址→
點擊此處瀏覽連結下載點這裡
點擊此處在新視窗瀏覽實際大小的圖片
BD-720P [RMVB]《回馬槍 Coming Back》下載連結資料夾:
點擊此處在新視窗瀏覽實際大小的圖片
點擊此處瀏覽連結點擊此處注冊後可以免費得到一個500GB的空間獲得高速下載通道: 
點擊此處在新視窗瀏覽實際大小的圖片點擊此處瀏覽連結其它香港三級片下載點這裡
點擊此處在新視窗瀏覽實際大小的圖片
點擊此處瀏覽連結點擊此處註冊後可以免費得到一個750GB的空間獲得高速下載通道:
點擊此處在新視窗瀏覽實際大小的圖片點擊此處瀏覽連結下載點這裡
點擊此處在新視窗瀏覽實際大小的圖片Folder link:點擊此處瀏覽連結http://www.wupload.com/folder/528160 
點擊此處在新視窗瀏覽實際大小的圖片點擊此處瀏覽連結http://www.wupload.com/file/184233877/Coming Back BD 720P.rmvb
點擊此處瀏覽連結分割檔可以使用HJSplit 2.3工具合併
點擊此處在新視窗瀏覽實際大小的圖片HJSplit 2.3 檔案分割、合併、比對 繁體中文免安裝版 下載地址→
點擊此處瀏覽連結下載點這裡
※wupload下載教學※
點擊此處瀏覽連結點擊此處在新視窗瀏覽實際大小的圖片

, , , ,

☜♥☞阿德 發表在 痞客邦 PIXNET 留言(0) 人氣()