1995 香港三級片 血腥驚悚影片 歐陽震華主演《二奶村之殺夫》DVD國語中字【FS WU】
【片 名】:二奶村之殺夫
【英 名】:The Woman Behind
【別 名】:Er nai cun zhi sha fu
【年 代】:1995年
【地 區】:香港
【類 型】:成人 / 劇情 / 犯罪 / 驚悚 / 血腥
【級 別】:Hong Kong:III (只限年滿18歲人士觀看)
【語 言】:國語
【字 幕】:中文/英文(內嵌)
【尺 寸】:704 x 396
【片 長】:01:31:22
【格 式】:RMVB-H264 Audio:RA
【格 式】:RMVB
【容 量】:576 MB
【上 映】:1995年3月23日
【發 行】:星寶集團有限公司
【製 作】:唯美製作有限公司
【導 演】:林義雄 Lam Yee-Hung
【監 製】:黃港強 Joe Wong Gong-Keung
【編 劇】:唯美編劇組 World Perfect scriptwriting Team
【主 演】:鍾淑慧 Lily Chung Suk-Wai ... 綺文
   鄭艷麗 Julia Cheng Yim-Lai ... 阿玉
   歐陽震華 Bobby Au-Yeung Jan-Wa ... 桂生
   溫燕紅 Wan Yin-Hung
   周潤堅 Danny Chow Yun-Gin
   方 茹 Fong Yue
   許思敏 Hui Si-Man
【IMDB評分】:1/10 (5 votes)
【IMDB鏈接】:點擊此處瀏覽連結http://www.imdb.com/title/tt0112976/
【維基百科】:點擊此處瀏覽連結http://zh.wikipedia.org/wiki/二奶村之殺夫

點擊此處在新視窗瀏覽實際大小的圖片

點擊此處在新視窗瀏覽實際大小的圖片

※劇情簡介※
酒樓領班方綺文與裝修工人邵桂生結婚十餘年,夫妻眼見內地經濟起飛。桂生與綺文之兄長方強回鄉開設裝修工程公司,生意且蒸蒸日上。桂生在管工亞茂的介紹下認識失婚少婦亞玉,並安排玉任文員助理,玉美麗且善解人意,使桂生漸漸愛上玉並與她同居。綺文發覺桂生形跡可疑,遂向方強嚴詢而得知真相,綺文妒火中燒,遂辭工回鄉向桂生大興問罪之師… 玉為討好綺文,對她百般遷就,三人雖同床共枕,但夫妻間的魚水之歡玉全讓於綺文,綺文終被玉所感動,二人更以姊妹相稱,讓桂生享齊人之福。其實綺文強抑心內悲情,委曲求存。後夫婦回港談判,綺文力勸桂生離玉,被桂生所拒,並提出離婚而娶玉,綺文聞言悲慟難過,精神崩潰,乘桂生熟睡之,揮力狂刺桂生至死後從十八樓躍下自殺,揭發一幕人間悲劇…

※影片簡評※
歐陽震華的另一部激情戲作品《二奶村之殺夫》(又名《路邊的野花不要採》用了大部份的時間來鋪陳劇情,真正意義上的激情戲集中於一場,由歐陽震華與飾演他情婦的女演員共同完成,該場戲女演員有較為大膽的裸露,但歐陽震華並不是一個「以色奪人」的演員,所以他沒有選擇直白的裸露,而是以眼神及動作去演出那種激情的感覺。歐陽震華在此片中的角色也與他日後的招牌戲路背道而馳,演的是一個在老婆與情人間一腳踏兩船最後被精神崩潰的妻子所殺的「爛仔」角色。

※截  圖※
點擊此處在新視窗瀏覽實際大小的圖片
※影片格式詳細資料※
General
Complete name : 二奶村之殺夫.The Woman Behind.rmvb
Format : RealMedia
File size : 576 MiB
Duration : 1h 31mn
Overall bit rate : 869 Kbps
Video #1
ID : 1
Format : RealVideo 4
Codec ID : RV40
Codec ID/Info : Based on AVC (H.264), Real Player 9
Duration : 1h 31mn
Bit rate : 805 Kbps
Width : 704 pixels
Height : 396 pixels
Display aspect ratio : 16:9
Frame rate : 29.000 fps
Resolution : 12 bits
Bits/(Pixel*Frame) : 0.100
Stream size : 526 MiB (91%)
Audio #0
ID : 0
Format : Cooker
Codec ID : cook
Codec ID/Info : Based on G.722.1, Real Player 6
Duration : 1h 30mn
Bit rate : 64.1 Kbps
Channel(s) : 2 channels
Sampling rate : 44.1 KHz
Resolution : 16 bits
Stream size : 41.6 MiB (7%) 
-------------------------------------------------------------------------------------------------------
下載教學步驟一:
進入下載畫面之後,移動到網頁右下方你會看到"普通下載"的按鈕,選擇按下"普通下載"等一下下會出現識別碼,依照顯示的識別碼輸入即可。

下載教學步驟二:
移動到網頁右上方你會看到倒數的秒數出現,等待秒數完成後按下"普通下載"即可下載。

PS:如果識別碼不清楚可以選擇更新輸入後確定等待約20秒即可下載,下載點不支援 訊雷、快車、BT..等等續傳軟體,請使用IE瀏覽器下載。

點擊此處瀏覽連結下載教學網頁圖片請點這裡
KMPlayer Ver.2.9.4.1436影音播放軟體 (內含加掛MP3插件 無所不播無所不放免安裝版)→ 點擊此處瀏覽連結下載點這裡
FileServe◎Mipony 1.2.2免費空間下載加速工具 地址→ 點擊此處瀏覽連結下載點這裡
xun6◎Mipony 1.2.2免費空間下載加速工具 地址→ 點擊此處瀏覽連結下載點這裡
------------------------------------------------------------------------
1995 香港三級片 血腥驚悚影片 歐陽震華主演《二奶村之殺夫 The Woman Behind》DVD國語中字
------------------------------------------------------------------------ 
點擊此處瀏覽連結掛機網賺 20dollars2surf,全自動衝浪掛機也可賺錢 點擊此處瀏覽連結※內附完整教學圖※
點擊此處瀏覽連結分割檔可以使用HJSplit 2.3工具合併
點擊此處在新視窗瀏覽實際大小的圖片HJSplit 2.3 檔案分割、合併、比對 繁體中文免安裝版 下載地址→
點擊此處瀏覽連結下載點這裡
點擊此處在新視窗瀏覽實際大小的圖片
BD-720P [RMVB]《二奶村之殺夫 The Woman Behind》下載連結資料夾:
點擊此處在新視窗瀏覽實際大小的圖片
點擊此處瀏覽連結點擊此處注冊後可以免費得到一個500GB的空間獲得高速下載通道: 
點擊此處在新視窗瀏覽實際大小的圖片點擊此處瀏覽連結其它香港三級片下載點這裡
點擊此處在新視窗瀏覽實際大小的圖片
點擊此處瀏覽連結點擊此處註冊後可以免費得到一個750GB的空間獲得高速下載通道:
點擊此處在新視窗瀏覽實際大小的圖片點擊此處瀏覽連結下載點這裡
點擊此處在新視窗瀏覽實際大小的圖片Folder link:點擊此處瀏覽連結http://www.wupload.com/folder/528160 
點擊此處在新視窗瀏覽實際大小的圖片點擊此處瀏覽連結http://www.wupload.com/file/184104085/二奶村之殺夫.The Woman Behind.rmvb
點擊此處瀏覽連結分割檔可以使用HJSplit 2.3工具合併
點擊此處在新視窗瀏覽實際大小的圖片HJSplit 2.3 檔案分割、合併、比對 繁體中文免安裝版 下載地址→
點擊此處瀏覽連結下載點這裡
※wupload下載教學※
點擊此處瀏覽連結點擊此處在新視窗瀏覽實際大小的圖片

, , ,

Posted by ☜♥☞阿德 at 痞客邦 PIXNET 留言(0) 引用(0) 人氣()