2011 最新上映喜劇大片《雞排英雄 Night Market Hero》高清BD-MP4國語中字【FS WU】
【片 名】:雞排英雄
【英 名】:Night Market Hero
【年 代】:2011年
【地 區】:台灣
【類 型】:喜劇 / 劇情 
【語 言】:國語
【字 幕】:中文
【尺 寸】:640 x 362
【片 長】:02:03:35
【格 式】:MP4-H264 Audio:AAC
【格 式】:MP4
【容 量】:889 MB
【上 映】:2011年1月28日
【發 行】:青睞影視製作有限公司
【導 演】:葉天倫
【監 製】:潘婕、葉丹青
【編 劇】:葉丹青、葉天倫
【主 演】:豬哥亮(特別演出)、藍正龍、柯佳嬿、王彩樺、趙正平、翠娥、呂雪鳳、樊光耀、劉品言、應蔚民、蔡昌憲
【IMDB評分】:5.8/10 (100 votes)
【IMDB鏈接】:點擊此處瀏覽連結http://www.imdb.com/title/tt1887820
【官方網站】:點擊此處瀏覽連結http://www.foxmovies.com.tw/nightmarkethero/ 官方部落格:點擊此處瀏覽連結http://nightmarkethero.pixnet.net/blog
【維基百科】:點擊此處瀏覽連結http://zh.wikipedia.org/wiki/雞排英雄

點擊此處在新視窗瀏覽實際大小的圖片

點擊此處在新視窗瀏覽實際大小的圖片

※劇情簡介※
賣雞排、賣牛排、賣烤香腸、賣蚵仔麵線、賣四神湯,「八八八夜市」賣的不只是食物,而是你我生命中最簡單、也最幸福的味蕾記憶。 阿華(藍正龍 飾演),「台」得很帥的青春少年兄,身為「八八八夜市」的自治會長,用自己圓融八方的台客性格,將夜市打理得有聲有色。在八八八,每個人都有自己的辛酸故事,但錢要賺、家要養,天真的八八八英雄們,選擇開開心心地過。
某個平靜天,八八八的土地無預警被建商收購,建商利用政商勾結,剝奪他們微薄的權利。小人物們都慌了,累積了十幾年的心血,眼見就要化為烏有。夾雜著新仇與舊恨,阿華率領著八八八,誓死奮戰到底,一群赤手空拳的平民英雄,槓上出身地方的惡質政客,展開一場扞衛土地的夢想之戰……

【幕後】

1、藍正龍本身就是在夜市長大的小孩,因此看到劇本時非常歡喜,片中角色的很多設計都帶著藍正龍過往記憶的烙印。 比如拉高褲子的動作設計,就是因為藍正龍的爺爺也都穿高腰褲,因為觀察到爺爺不時會有拉高褲子的動作,於是藍正龍將這個動作加進表演中。
   在談到劇中夜市的這一群小人物,藍正龍這樣來形容,他覺得每個夜市人物都是怪獸,因為你永遠不知道接下來還會蹦出什麼來,很多的即興與驚喜。奇怪的是,大家的temple卻很一致,很和諧。藍正龍自己就受到前來支援拍攝的樂華夜市攤販影響很大,在他們身上學習到「討生活」,他們平時沒戲,聚在一旁喝茶聊天,很自然有一種真實的氛圍。

2、當導演詢問男主演藍正龍對這個本子有什麼意見時,藍正龍只說了一句話:「很台,很好啊!」
   3、這是台灣早期歌廳秀天王豬哥亮18年後挎再次出演電影。本來他的角色只是個客串,演到後來卻變成主角。導演沒加戲,全靠豬哥亮自動在片場演,將他看過的有趣事加到演出中。結果導演越看越喜歡,戲份也就越來越重。
【票房】
台灣本土春節賀歲電影《雞排英雄》自2011年1月28日首周上映後,每天的票房進帳數字節節飆升,截至30日為止,台北市的票房累積數字達到514萬(單位:新台幣,以下同),全台累積則是衝破1200萬,在目前台灣本土電影市場低迷的大環境下,可謂成績不俗。
自電影上映後,許多看過的影迷也忍不住在許多知名網站留言,表示對這部電影所帶來的獨特台灣人情味感到驚喜,還有一些觀眾在看完電影後受到電影中的美食畫面刺激而直奔夜市大吃一頓,成為另一個有趣的電影觀後現象;再過兩天天就是真正的年節假期,對《雞排英雄》來說,真正的春節票房大戰才要開始,片商也開心的對年節票房感到信心滿滿,因為這就是一部為台灣人特別打造的電影,大家都說:「錯過可惜!」
影片原本的拍攝目的,就是要將「最本土的台灣精神」藉由大銀幕加上許多只有在台灣才有的人情文化,透過眾人皆熟的演技派明星精湛演技,娓娓的呈獻給所有觀眾,讓大家看到平日就生活在身邊小人物的喜怒哀樂。《雞排英雄》是昔日歌廳秀天王豬哥亮闊別影壇16年首度復出大銀幕的作品,新人導演葉天倫執導,片中演員還包括藍正龍、趙正平、柯佳嬿以及王彩樺等人,影片描繪台灣極具特色的夜市文化和生態。
   《雞排英雄》在台灣票房破新台幣1億1000萬元(約2500萬人民幣),2011年2月22日電影公司特別舉行破億慶功宴,這部片也入圍了2011年的沖繩國際電影節。
2011第3屆沖繩國際影展
2011第13屆義大利遠東影展

※截  圖※
點擊此處在新視窗瀏覽實際大小的圖片
※影片格式詳細資料※
General
Complete name : 雞排英雄.Night Market Hero.mp4
Format : MPEG-4
Format profile : Base Media
Codec ID : isom
File size : 889 MiB
Duration : 2h 3mn
Overall bit rate : 1 006 Kbps
Encoded date : UTC 2011-06-17 13:32:35
Tagged date : UTC 2011-06-17 13:32:35
Video #1
ID : 1
Format : AVC
Format/Info : Advanced Video Codec
Format profile : Baseline@L1.3
Format settings, CABAC : No
Format settings, ReFrames : 3 frames
Codec ID : avc1
Codec ID/Info : Advanced Video Coding
Duration : 2h 3mn
Bit rate mode : Variable
Bit rate : 900 Kbps
Maximum bit rate : 2 851 Kbps
Width : 480 pixels
Height : 272 pixels
Display aspect ratio : 16:9
Frame rate mode : Constant
Frame rate : 23.976 fps
Resolution : 24 bits
Colorimetry : 4:2:0
Scan type : Progressive
Bits/(Pixel*Frame) : 0.288
Stream size : 795 MiB (89%)
Title : Imported with GPAC 0.4.6-DEV (internal rev. 5)
Writing library : x264 core 98 r1649 c54c47d
Encoding settings : cabac=0 / ref=3 / deblock=1:0:0 / analyse=0x1:0x111 / me=umh / subme=7 / psy=1 / psy_rd=1.00:0.00 / mixed_ref=1 / me_range=16 / chroma_me=1 / trellis=0 / 8x8dct=0 / cqm=0 / deadzone=21,11 / fast_pskip=0 / chroma_qp_offset=-2 / threads=3 / sliced_threads=0 / nr=0 / decimate=0 / interlaced=0 / constrained_intra=0 / bframes=0 / weightp=0 / keyint=250 / keyint_min=25 / scenecut=40 / intra_refresh=0 / rc_lookahead=40 / rc=2pass / mbtree=1 / bitrate=900 / ratetol=1.0 / qcomp=0.60 / qpmin=10 / qpmax=51 / qpstep=4 / cplxblur=20.0 / qblur=0.5 / ip_ratio=1.40 / aq=1:1.00 / cabac=0 / ref=3 / deblock=1:0:0 / analyse=0x1:0x111 / me=umh / subme=7 / psy=1 / psy_rd=1.00:0.00 / mixed_ref=1 / me_range=16 / chroma_me=1 / trellis=0 / 8x8dct=0 / cqm=0 / deadzone=21,11 / fast_pskip=0 / chroma_qp_offset=-2 / threads=3 / sliced_threads=0 / nr=0 / decimate=0 / interlaced=0 / constrained_intra=0 / bframes=0 / weightp=0 / keyint=250 / keyint_min=25 / scenecut=40 / intra_refresh=0 / rc_lookahead=40 / rc=2pass / mbtree=1 / bitrate=900 / ratetol=1.0 / qcomp=0.60 / qpmin=10 / qpmax=51 / qpstep=4 / cplxblur=20.0 / qblur=0.5 / ip_ratio=1.40 / aq=1:1.00
Encoded date : UTC 2011-06-17 13:32:35
Tagged date : UTC 2011-06-17 13:32:57
Audio #2
ID : 2
Format : AAC
Format/Info : Advanced Audio Codec
Format version : Version 4
Format profile : LC
Format settings, SBR : No
Codec ID : 40
Duration : 2h 3mn
Bit rate mode : Variable
Bit rate : 103 Kbps
Maximum bit rate : 150 Kbps
Channel(s) : 2 channels
Channel positions : L R
Sampling rate : 48.0 KHz
Resolution : 16 bits
Stream size : 91.2 MiB (10%)
Encoded date : UTC 2011-06-17 13:32:51
Tagged date : UTC 2011-06-17 13:32:57 
-------------------------------------------------------------------------------------------------------
下載教學步驟一:
進入下載畫面之後,移動到網頁右下方你會看到"普通下載"的按鈕,選擇按下"普通下載"等一下下會出現識別碼,依照顯示的識別碼輸入即可。

下載教學步驟二:
移動到網頁右上方你會看到倒數的秒數出現,等待秒數完成後按下"普通下載"即可下載。

PS:如果識別碼不清楚可以選擇更新輸入後確定等待約20秒即可下載,下載點不支援 訊雷、快車、BT..等等續傳軟體,請使用IE瀏覽器下載。

點擊此處瀏覽連結下載教學網頁圖片請點這裡
KMPlayer Ver.2.9.4.1436影音播放軟體 (內含加掛MP3插件 無所不播無所不放免安裝版)→ 點擊此處瀏覽連結下載點這裡
FileServe◎Mipony 1.2.2免費空間下載加速工具 地址→ 點擊此處瀏覽連結下載點這裡
xun6◎Mipony 1.2.2免費空間下載加速工具 地址→ 點擊此處瀏覽連結下載點這裡
------------------------------------------------------------------------
2011 最新上映喜劇大片《雞排英雄 Night Market Hero》高清BD-MP4國語中字
------------------------------------------------------------------------ 
點擊此處瀏覽連結掛機網賺 20dollars2surf,全自動衝浪掛機也可賺錢 點擊此處瀏覽連結※內附完整教學圖※
點擊此處瀏覽連結分割檔可以使用HJSplit 2.3工具合併
點擊此處在新視窗瀏覽實際大小的圖片HJSplit 2.3 檔案分割、合併、比對 繁體中文免安裝版 下載地址→
點擊此處瀏覽連結下載點這裡
點擊此處在新視窗瀏覽實際大小的圖片
BD-720P [MP4]《雞排英雄 Night Market Hero》下載連結資料夾:
點擊此處在新視窗瀏覽實際大小的圖片
點擊此處瀏覽連結點擊此處注冊後可以免費得到一個500GB的空間獲得高速下載通道: 
點擊此處在新視窗瀏覽實際大小的圖片點擊此處瀏覽連結其它香港三級片下載點這裡
點擊此處在新視窗瀏覽實際大小的圖片
點擊此處瀏覽連結點擊此處註冊後可以免費得到一個750GB的空間獲得高速下載通道:
點擊此處在新視窗瀏覽實際大小的圖片點擊此處瀏覽連結下載點這裡
點擊此處在新視窗瀏覽實際大小的圖片Folder link:點擊此處瀏覽連結http://www.wupload.com/folder/528160 
雞排英雄 Night Market Hero
點擊此處在新視窗瀏覽實際大小的圖片點擊此處瀏覽連結http://www.wupload.com/file/182201856/Night Market Hero.mp4

點擊此處瀏覽連結分割檔可以使用HJSplit 2.3工具合併
點擊此處在新視窗瀏覽實際大小的圖片HJSplit 2.3 檔案分割、合併、比對 繁體中文免安裝版 下載地址→
點擊此處瀏覽連結下載點這裡
※wupload下載教學※
點擊此處瀏覽連結點擊此處在新視窗瀏覽實際大小的圖片

,

☜♥☞阿德 發表在 痞客邦 PIXNET 留言(0) 人氣()