2011最新上映美國票房奇幻動作大片《雷神 Thor》高清BD-AVI英語中字【FS WU】
【片 名】:雷神/雷神托爾/雷神奇俠(港)/雷神索爾(台)
【英 名】:Thor
【年 代】:2011年
【地 區】:美國
【類 型】:動作 / 劇情 / 冒險 / 奇幻
【語 言】:英語
【字 幕】:外掛中文
【尺 寸】:720 x 304
【片 長】:01:54:50
【格 式】:AVI-XviD Audio:AC3-5.1CH
【格 式】:AVI
【容 量】:1.74 GB
【上 映】:台灣2011年4月28日
【發 行】:派拉蒙 Paramount Pictures
【導 演】:肯尼思·布拉納 Kenneth Branagh
【監 製】:Kevin Feige
【編 劇】:約瑟夫·邁克爾·斯特拉日恩斯基 Mark Protosevich 漫畫原著:史丹·李 Larry Lieber 傑克·科比
【主 演】:克裡斯·海姆斯沃斯 Chris Hemsworth ....Thor
      娜塔莉·波特曼 Natalie Portman ....Jane Foster
      安東尼·霍普金斯 Anthony Hopkins ....Odin
      湯姆·希德勒斯頓 Tom Hiddleston ....Loki
      斯特蘭·斯卡斯加德 Stellan Skarsgard ....Erik Selvig
      凱特·戴琳斯 Kat Dennings ....Darcy Lewis
      克拉克·格雷格 Clark Gregg ....Agent Coulson
      伊德瑞斯·艾爾巴 Idris Elba ....Heimdall
      科魯姆·費奧瑞 Colm Feore ....King Laufey
      雷·史蒂文森 Ray Stevenson ....Volstagg
      淺野忠信 Tadanobu Asano ....Hogun
      喬舒華·達拉斯 Joshua Dallas ....Fandral
      傑米·亞歷山大 Jaimie Alexander ....Sif
      蕾妮·羅素 Rene Russo ....Frigga
      艾德裡安娜·巴拉扎 Adriana Barraza ....Isabel Alvarez
【IMDB評分】:7.2/10 ( 85,986 votes)
【IMDB鏈接】:點擊此處瀏覽連結http://www.imdb.com/title/tt0800369/
【官方網址】:點擊此處瀏覽連結http://thor.marvel.com/
【維基百科】:點擊此處瀏覽連結http://zh.wikipedia.org/wiki/雷神托爾

點擊此處在新視窗瀏覽實際大小的圖片

※劇情簡介※
派拉蒙影業暨漫威影業共同出品備受期待的漫畫超級英雄電影《雷神索爾》,該片史詩般的冒險故事發生在現今的地球以及阿斯嘉的奇幻世界。故事的中心人物是勇有強大神力的雷神索爾,但是他自大魯莽的行為掀起了一場古老的戰爭,他也因此被貶入凡間作為懲罰,被迫與人類一同生活。索爾必須學會如何成為一個真正的英雄,才能對抗來自神界的強大黑暗勢力。《雷神索爾》一片探討一個人的傳奇冒險,他從一個傲慢自大的神界王位繼承人被貶入凡間,他必須成為一名超級英雄才能登上王位。
派拉蒙影業暨漫威影業共同出品,漫威電影公司製作,肯尼斯布萊納作品,《雷神索爾》的主要演員包括克里斯漢斯沃(《星際爭霸戰》)、新科金獎影后娜塔莉波曼(《黑天鵝》)、湯姆希德斯頓(《集結風暴》)、史戴倫史柯斯嘉(《天使與魔鬼》)、凱特丹寧絲(《40處男》)、克拉克葛瑞格(《鋼鐵人2》)、柯姆佛爾(《超世紀戰警》)、雷史蒂文森(《B咖戰警》)、伊卓瑞斯艾巴(《敗者為王》)、潔咪亞歷山大(《愛情藥不藥》)、淺野忠信(《殺手阿一》)、賈許瓦達拉斯(《敢愛敢鬥》)、蕾妮羅素(《親戚麥計較》)以及安東尼霍普金斯(《狼嚎再起》)。
《雷神索爾》一片的導演是肯尼斯布萊納(《瑪麗雪萊之科學怪人》);編劇是艾希莉愛德華米勒與賽克史丹茲(《小鬼特務》)和唐潘恩(《驚奇4超人:銀色衝浪手現身》);原創故事是邁可史崔克辛斯基(《陌生的孩子》)與馬克普羅塞維奇(《我是傳奇》);製片是凱文費吉(《鋼鐵人2》);執行製片是亞倫范恩(《鋼鐵人2》)、史丹李、大衛梅塞爾(《無敵浩克》)、派翠西魏契(《藝伎回憶錄》)以及路易斯狄索波西多(《鋼鐵人1、2》)。幕後工作人員包括攝影指導哈利斯贊巴盧可斯(《媽媽咪呀!》);美術指導鮑威爾契(《MIB星際戰警2》);剪接師保羅魯貝(《變形金剛》);服裝設計師亞莉珊卓拜恩(《伊莉莎白:輝煌年代》);共同製片克雷格凱爾以及薇多莉亞艾蘭蘇(《鋼鐵人》);音樂總監戴夫喬登(《變形金剛》);以及配樂師派屈克道伊(《哈利波特:火盃的考驗》)。

※截  圖※
點擊此處在新視窗瀏覽實際大小的圖片
※影片格式詳細資料※
General
Complete name : 雷神索爾.Thor.2011.720p.Bluray.AC3.avi
Format : AVI
Format/Info : Audio Video Interleave
File size : 1.74 GiB
Duration : 1h 54mn
Overall bit rate : 2 168 Kbps
Writing application : VirtualDubMod 1.5.10.3 | www.virtualdub-fr.org || (build 2550/release)
Writing library : VirtualDubMod build 2550/release
Video #0
ID : 0
Format : MPEG-4 Visual
Format profile : AdvancedSimple@L5
Format settings, BVOP : Yes
Format settings, QPel : No
Format settings, GMC : No warppoints
Format settings, Matrix : Default (MPEG)
Codec ID : XVID
Codec ID/Hint : XviD
Duration : 1h 54mn
Bit rate : 1 711 Kbps
Width : 720 pixels
Height : 304 pixels
Display aspect ratio : 2.35:1
Frame rate : 23.976 fps
Resolution : 24 bits
Colorimetry : 4:2:0
Scan type : Progressive
Bits/(Pixel*Frame) : 0.326
Stream size : 1.37 GiB (79%)
Writing library : XviD 1.2.1 (UTC 2008-12-04)
Audio #1
ID : 1
Format : AC-3
Format/Info : Audio Coding 3
Codec ID : 2000
Duration : 1h 54mn
Bit rate mode : Constant
Bit rate : 448 Kbps
Channel(s) : 6 channels
Channel positions : Front: L C R, Surround: L R, LFE
Sampling rate : 48.0 KHz
Stream size : 368 MiB (21%)
Alignment : Split accross interleaves
Interleave, duration : 42 ms (1.00 video frame)
Interleave, preload duration : 500 ms

-------------------------------------------------------------------------------------------------------
下載教學步驟一:
進入下載畫面之後,移動到網頁右下方你會看到"普通下載"的按鈕,選擇按下"普通下載"等一下下會出現識別碼,依照顯示的識別碼輸入即可。

下載教學步驟二:
移動到網頁右上方你會看到倒數的秒數出現,等待秒數完成後按下"普通下載"即可下載。

PS:如果識別碼不清楚可以選擇更新輸入後確定等待約20秒即可下載,下載點不支援 訊雷、快車、BT..等等續傳軟體,請使用IE瀏覽器下載。

點擊此處瀏覽連結下載教學網頁圖片請點這裡
KMPlayer Ver.2.9.4.1436影音播放軟體 (內含加掛MP3插件 無所不播無所不放免安裝版)→ 點擊此處瀏覽連結下載點這裡
FileServe◎Mipony 1.2.2免費空間下載加速工具 地址→ 點擊此處瀏覽連結下載點這裡
xun6◎Mipony 1.2.2免費空間下載加速工具 地址→ 點擊此處瀏覽連結下載點這裡
------------------------------------------------------------------------
2011最新上映美國票房奇幻動作大片《雷神 Thor》高清BD-AVI英語中字
------------------------------------------------------------------------ 
點擊此處瀏覽連結掛機網賺 20dollars2surf,全自動衝浪掛機也可賺錢 點擊此處瀏覽連結※內附完整教學圖※
點擊此處瀏覽連結分割檔可以使用HJSplit 2.3工具合併
點擊此處在新視窗瀏覽實際大小的圖片HJSplit 2.3 檔案分割、合併、比對 繁體中文免安裝版 下載地址→
點擊此處瀏覽連結下載點這裡
點擊此處在新視窗瀏覽實際大小的圖片
BD-720P [avi]《雷神 Thor》下載連結資料夾:
點擊此處在新視窗瀏覽實際大小的圖片
點擊此處瀏覽連結點擊此處注冊後可以免費得到一個500GB的空間獲得高速下載通道: 
點擊此處在新視窗瀏覽實際大小的圖片點擊此處瀏覽連結其它香港三級片下載點這裡
點擊此處瀏覽連結雷神.Thor.2011.720p.Bluray.AC3.avi下載點這裡
點擊此處在新視窗瀏覽實際大小的圖片Folder link: 點擊此處瀏覽連結http://www.fileserve.com/list/jxeBJPE

點擊此處在新視窗瀏覽實際大小的圖片
點擊此處瀏覽連結點擊此處註冊後可以免費得到一個750GB的空間獲得高速下載通道:
點擊此處在新視窗瀏覽實際大小的圖片點擊此處瀏覽連結雷神 Thor 下載點這裡
點擊此處在新視窗瀏覽實際大小的圖片Folder link:點擊此處瀏覽連結http://www.wupload.com/folder/528160 
點擊此處在新視窗瀏覽實際大小的圖片點擊此處瀏覽連結http://www.wupload.com/file/609641601/Thor.2011.720p.Bluray.AC3.avi.001
點擊此處在新視窗瀏覽實際大小的圖片點擊此處瀏覽連結http://www.wupload.com/file/609698781/Thor.2011.720p.Bluray.AC3.avi.002
點擊此處在新視窗瀏覽實際大小的圖片點擊此處瀏覽連結http://www.wupload.com/file/609643501/Thor.2011.720p.Bluray.AC3.avi.003
點擊此處在新視窗瀏覽實際大小的圖片點擊此處瀏覽連結http://www.wupload.com/file/609760801/Thor.2011.720p.Bluray.AC3.avi.004
點擊此處在新視窗瀏覽實際大小的圖片點擊此處瀏覽連結http://www.wupload.com/file/609683576/Thor.2011.720p.Bluray.AC3.avi.005

點擊此處在新視窗瀏覽實際大小的圖片點擊此處瀏覽連結雷神索爾.Thor.2011.720p.Bluray.AC3.chi.srt 簡體中文
點擊此處在新視窗瀏覽實際大小的圖片點擊此處瀏覽連結雷神索爾.Thor.2011.720p.Bluray.AC3.chi.srt 繁體中文

點擊此處瀏覽連結分割檔可以使用HJSplit 2.3工具合併
點擊此處在新視窗瀏覽實際大小的圖片HJSplit 2.3 檔案分割、合併、比對 繁體中文免安裝版 下載地址→
點擊此處瀏覽連結下載點這裡
※wupload下載教學※
點擊此處瀏覽連結點擊此處在新視窗瀏覽實際大小的圖片

, , , ,

☜♥☞阿德 發表在 痞客邦 PIXNET 留言(0) 人氣()