2002 梁朝偉 劉德華 主演《無間道3部曲系列電影 Infernal Affairs》高清BD國語中字【FS WU】
【片 名】:無間道Ⅰ
【英 名】:Infernal Affairs
【年 代】:2002年
【地 區】:中國香港
【類 型】:動作 / 劇情 / 犯罪
【語 言】:國語
【字 幕】:中文
【尺 寸】:1280 x 720
【片 長】:01:40:36
【格 式】:RMVB-H264 Audio:RA
【格 式】:RMVB
【容 量】:1.24 GB
【上 映】:2002年12月12日
【發 行】:寰亞電影有限公司
【導 演】:劉偉強、麥兆輝
【監 製】:劉偉強
【編 劇】:麥兆輝、莊文強
【主 演】:梁朝偉、劉德華、黃秋生、曾志偉
【IMDB評分】:8.1/10 (42,526 votes)
【IMDB鏈接】:點擊此處瀏覽連結http://www.imdb.com/title/tt0338564/
【維基百科】:點擊此處瀏覽連結http://zh.wikipedia.org/wiki/無間道

點擊此處在新視窗瀏覽實際大小的圖片

※劇情簡介※
《無間道》故事的主角是兩個身份混亂的男人,他 ​​們分別為警方和黑社會的臥底。現在他們決心要離開這個不辨是非的處境,離開無間地獄,尋回自己。
劉健明(劉德華飾)是香港黑幫的會員,11年前,他聽從老大韓琛(曾志偉飾)的吩咐,加入了香港警察,成為黑社會臥底。劉健明果然不負所望,用了七年的時間晉升至高級督察,更有望升為總督察。其實,劉的上位全因有韓琛為其提供大量敵對幫派的犯罪情報。這一過程中,韓琛也乘勢擴張,勢力大增,現已牢牢控制了油尖旺區的毒品供應。
陳永仁(梁朝偉飾)一心想做個好警察,在考入警察學校後卻沒有完成受訓便遭革除。表面上的理由是陳於受訓其間不守紀律,實際的理由是警方藉陳的身世派陳深入黑幫做臥底工作。做臥底後不久,陳永仁因傷人被判刑,兩個月後因再犯被監禁十日。六年來,陳共有傷人記錄八次,被法庭強制接受心理輔導。雖然如此,但陳永仁現在是江湖中的紅人,他 ​​的老大就是近幾年活躍於油尖旺區的韓琛。
2002年 3月的一個晚上,尖沙咀警區重案組B隊根據線人提供的情報,獲知近期有一批毒品交易。在刑事情報科的支援下,重案組 B隊已經鎖定目標人物韓琛,他之前已經多次逃脫警方的羅網。不料,雙方的這次情報都被洩露,對方的毒品交易沒有成功,警方的行動也因此失敗。這一事件,暴露了雙方都有臥底在對方陣營的事實,引發兩方面清除內奸的決心。
劉健明在劇情發展至一半的時候,峰迴路轉的把韓琛殺害。原因是他要當一名真正的警察。在半正半邪的角色交錯間,劉健明延續了悲哀的不歸路。
陳永仁在心理輔導的過程中,與心理醫生朝夕相對、無所不談。結果,長時間的心理療程竟然讓他和醫生之間產生感情,也為日後劉健明身份被揭穿埋下伏筆。
兩個命運迥異卻又如此相似的角色,陳永仁、劉健明在這個剷除內奸的過程中均接受到嚴峻的考驗。就像墮入無間道,永不翻身。

《無間道》(英文:Infernal Affairs)為香港出產的警匪電影作品。上映後,緊湊刺激的劇情描述、乾淨俐落的敘事風格,普遍擄獲廣大群眾的口碑,創下高達5500萬港元票房收益,成為年度票房冠軍,並再度激發起電影公司對於影片的投資意願,更被視為非典時期振興香港電影的作品。另一方面,有見於本片的影響,讓有意效仿的電影公司再掀起一股警匪片熱潮,甚至於影響到整個亞洲地區。
本片在美國由米拉麥克斯影片發行,後來被好萊塢電影公司購下版權,並改編拍成電影《無間道風雲》,影片於2006年公映。

※截  圖※
點擊此處在新視窗瀏覽實際大小的圖片
※影片格式詳細資料※
General
Complete name : K:\電影\無間道\無間道I.Infernal.Affairs.1.BD.720P.rmvb
Format : RealMedia
File size : 1.24 GiB
Duration : 1h 40mn
Overall bit rate : 1 746 Kbps
Video #0
ID : 0
Format : RealVideo 4
Codec ID : RV40
Codec ID/Info : Based on AVC (H.264), Real Player 9
Duration : 1h 40mn
Bit rate : 1 682 Kbps
Width : 1 280 pixels
Height : 720 pixels
Display aspect ratio : 16:9
Frame rate : 24.000 fps
Resolution : 12 bits
Bits/(Pixel*Frame) : 0.076
Stream size : 1.18 GiB (95%)
Audio #1
ID : 1
Format : Cooker
Codec ID : cook
Codec ID/Info : Based on G.722.1, Real Player 6
Duration : 1h 40mn
Bit rate : 64.1 Kbps
Channel(s) : 2 channels
Sampling rate : 44.1 KHz
Resolution : 16 bits
Stream size : 46.1 MiB (4%)
-------------------------------------------------------------------------------------------------------
【片 名】:無間道Ⅱ
【英 名】:Infernal Affairs Ⅱ
【年 代】:2003年
【地 區】:中國香港
【類 型】:動作 / 劇情 / 犯罪
【語 言】:國語
【字 幕】:中文
【尺 寸】:1280 x 620
【片 長】:01:59:28
【格 式】:RMVB-H264 Audio:RA
【格 式】:RMVB
【容 量】:1.59 GB
【上 映】:2003年10月1日
【發 行】:寰亞電影有限公司
【導 演】:劉偉強、麥兆輝
【監 製】:劉偉強
【編 劇】:麥兆輝、莊文強
【主 演】:陳冠希、余文樂、黃秋生、曾志偉、劉嘉玲、吳鎮宇、胡軍、杜汶澤、廖啟智、張耀揚
【IMDB評分】:7.3/10 ( 7,136 votes)
【IMDB鏈接】:點擊此處瀏覽連結http://www.imdb.com/title/tt0369060/
【維基百科】:點擊此處瀏覽連結http://zh.wikipedia.org/wiki/%E7%84%A1%E9%96%93%E9%81%93%E2%85%A1

點擊此處在新視窗瀏覽實際大小的圖片

※劇情簡介※
1991年,黑幫份子劉健明(陳冠希)聽從Mary(劉嘉玲)的秘密派遣,順利狙殺黑幫龍頭倪坤(張同祖),並受韓琛(曾志偉)的指定進入警察學校受訓。晚間,倪坤的死訊在江湖上傳開後,旗下所掌控的黑幫頭目也紛紛蠢蠢欲動,隨即可能掀起極大的風暴,只有韓琛仍然忠心耿耿。同時,重案組警官陸啟昌(胡軍)和黃志誠(黃秋生)則帶隊緊盯現場情況,打算見機行事,盼能一舉逮捕在場份子。
只是,倪坤的二兒子倪永孝(吳鎮宇)則運用過人的手段,穩住別有異心的黑幫頭目,更讓趁機而入的警察徒勞無功,有著黑幫新任龍頭的架勢。某日,原本在警校受訓的陳永仁(余文樂),遭警校查出他偽造家庭背景,無法繼續接下來的學業。被迫離開警察學校的陳永仁,仍然一心嚮往能夠擔任警察,於是接受黃志誠的特別任務,投入黑幫擔任臥底的生涯。
1995年,身不由己的陳永仁和劉健明順利互換身份,逐漸站穩自己扮演的角色,邁向一條通往無間地獄的道路……

※截  圖※
點擊此處在新視窗瀏覽實際大小的圖片
※影片格式詳細資料※
General
Complete name : 無間道II.Infernal.Affairs.2.BD.720P.rmvb
Format : RealMedia
File size : 1.59 GiB
Duration : 1h 59mn
Overall bit rate : 1 895 Kbps
Video #1
ID : 1
Format : RealVideo 4
Codec ID : RV40
Codec ID/Info : Based on AVC (H.264), Real Player 9
Duration : 1h 59mn
Bit rate : 1 799 Kbps
Width : 1 280 pixels
Height : 620 pixels
Display aspect ratio : 2.065
Frame rate : 23.000 fps
Resolution : 12 bits
Bits/(Pixel*Frame) : 0.099
Stream size : 1.50 GiB (95%)
Audio #0
ID : 0
Format : Cooker
Codec ID : cook
Codec ID/Info : Based on G.722.1, Real Player 6
Duration : 1h 59mn
Bit rate : 95.8 Kbps
Channel(s) : 2 channels
Sampling rate : 44.1 KHz
Resolution : 16 bits
Stream size : 81.9 MiB (5%)
-------------------------------------------------------------------------------------------------------
【片 名】:無間道Ⅲ:終極無間
【英 名】: Infernal Affairs Ⅲ
【年 代】:2003年
【地 區】:中國香港
【類 型】:動作 / 劇情 / 犯罪
【語 言】:國語
【字 幕】:中文
【尺 寸】:1280 x 720
【片 長】:01:57:50
【格 式】:RMVB-H264 Audio:RA
【格 式】:RMVB
【容 量】:1.45 GB
【上 映】:2003年12月12日
【發 行】:寰亞電影有限公司
【導 演】:劉偉強、麥兆輝
【監 製】:劉偉強、高鳳俊
【編 劇】:麥兆輝、莊文強
【主 演】:劉德華、梁朝偉、黎明、陳道明、陳慧琳、黃秋生、曾志偉、杜汶澤
【IMDB評分】:6.9/10 ( 5,134 votes)
【IMDB鏈接】:點擊此處瀏覽連結http://www.imdb.com/title/tt0374339/
【維基百科】:點擊此處瀏覽連結http://zh.wikipedia.org/wiki/%E7%84%A1%E9%96%93%E9%81%93%E2%85%A2%EF%BC%9A%E7%B5%82%E6%A5%B5%E7%84%A1%E9%96%93

點擊此處在新視窗瀏覽實際大小的圖片

※劇情簡介※
2001年:這是最好的時代
臥底警察陳永仁在黑道老大韓琛麾下潛伏兩年,終於獲派與神秘的內地商人沈澄商討運毒交易,陳永仁卻不知已踏進琛布下的陷阱。警司黃志誠為了掩護陳永仁的臥底身份,與律政司交涉讓他會見李醫生進行心理輔導,結果李醫生逐漸成為了陳永仁的精神支柱,兩人更產生微妙關係。此時,韓琛卻命令仁進行一樁黑吃黑的走私交易,並企圖對沈澄痛下殺手。陳永仁為了完成臥底任務,在不知被陷害的情形下,踏出最冒險的一步……
2004年:這是最壞的時代
陳永仁殉職後十個月,黑道臥底劉健明警官被架空職權,負責瑣碎的警署工作。眼看年輕警司楊錦榮成為警隊內的新星,劉健明彷彿看見以前的自己。但更相似的,是楊錦榮竟可能同是黑幫派入警隊的臥底!明多番追查,卻總被一個神秘的瘸子阻撓,原來他竟是韓琛舊日的生意夥伴沈澄。當楊錦榮與沈澄聯手對付自己時,劉健明被逼著面對自己隱藏的過去,直到最後才發現,原來這兩個人竟然是……

※截  圖※
點擊此處在新視窗瀏覽實際大小的圖片
※影片格式詳細資料※
General
Complete name : 無間道III.Infernal.Affairs.3.BD.720P.rmvb
Format : RealMedia
File size : 1.45 GiB
Duration : 1h 57mn
Overall bit rate : 1 748 Kbps
Video #0
ID : 0
Format : RealVideo 4
Codec ID : RV40
Codec ID/Info : Based on AVC (H.264), Real Player 9
Duration : 1h 57mn
Bit rate : 1 684 Kbps
Width : 1 280 pixels
Height : 720 pixels
Display aspect ratio : 16:9
Frame rate : 24.000 fps
Resolution : 12 bits
Bits/(Pixel*Frame) : 0.076
Stream size : 1.39 GiB (96%)
Audio #1
ID : 1
Format : Cooker
Codec ID : cook
Codec ID/Info : Based on G.722.1, Real Player 6
Duration : 1h 57mn
Bit rate : 64.1 Kbps
Channel(s) : 2 channels
Sampling rate : 44.1 KHz
Resolution : 16 bits
Stream size : 54.0 MiB (4%)
-------------------------------------------------------------------------------------------------------
壞人和好人分別–無間道三部曲。
警察臥底和黑道臥底故事@@
不知道大家有沒有看過?!
黑道堅持''道義 '' 以及'' 友情 ''
無論是哪一道~~都有他們生存空間
以及存在價值
而警察就是白道&正義的一方

今天就讓我來介紹一下無間道系列
就是這樣故事喔@@雖然有點複雜0.0

無間道
2002年
劇情簡介
《無間道》故事的主角是兩個身份混亂的男人,他們分別為警方和黑社會的臥底。現在他們決心要離開這個不辨是非的處境,離開無間地獄,尋回自己。
劉健明(劉德華飾)
本作主角,是香港黑幫的會員,11年前,他聽從老大韓琛(曾志偉飾)的吩咐,加入了香港警察,成為黑社會臥底。劉健明果然不負所望,用了七年的時間晉陞至警長,更有望升為見習督察。其實,劉的上位全因有韓琛為其提供大量敵對幫派的犯罪情報。這一過程中,韓琛也乘勢擴張,勢力大增,現已牢牢控制了油尖旺區的毒品供應。

陳永仁(梁朝偉飾)
(1966年10月25日-2002年11月27日)
一心想做個好警察,在考入警察學校後卻沒有完成受訓便遭革除。表面上的理由是陳於受訓其間不守紀律,實際的理由是警方藉陳的身世派陳深入黑幫做臥底工作。做臥底後不久,陳永仁因傷人被判刑,兩個月後因再犯被監禁十日。六年來,陳共有傷人記錄八次,被法庭強制接受心理輔導。雖然如此,但陳永仁現在是江湖中的紅人,他的老大就是近幾年活躍於油尖旺區的韓琛。

黃志誠 (黃秋生飾演) 
重案組警司,陳永仁的上司。

韓琛 (曾志偉飾演) 
黑幫大哥,也是他叫劉健明去當警察臥底,是香港某一派老大,威嚴、冷酷。

Mary (鄭秀文飾演)
劉健明的女友,小說作家。

李心兒 (陳慧琳飾演)
陳永仁的心理醫生,有一天陳永仁第一次找他,雖然沒有完全讓他病情好多,不過兩人第一次相遇,之後陳永仁固定時間點去心兒那邊,最後兩人相愛,直到陳永仁去世,心兒無法接受。

劉健明(少年) 陳冠希 

陳永仁(少年) 余文樂 

May 蕭亞軒 陳永仁的前女友

徐偉強(傻強) 杜汶澤 韓琛的手下、迪比亞路的最重要的手下(頭馬)

林國平/大B 林家棟 劉健明的下屬/韓琛的臥底

張Sir 吳廷燁 重案組督察

梁Sir 尹志強 總警司

迪比亞路 林迪安 韓琛的最重要的手下

以上演員部分

有些圖片很難找ˊˋ''
只用短文字介紹一下囉。


無間道Ⅱ
1991年,黑幫份子劉健明(陳冠希)聽從Mary(劉嘉玲)的秘密派遣,順利狙殺黑幫龍頭倪坤(張同祖),並受韓琛(曾志偉)的指定進入警察學校受訓。晚間,倪坤的死訊在江湖上傳開後,旗下所掌控的黑幫頭目也紛紛蠢蠢欲動,隨即可能掀起極大的風暴,只有韓琛仍然忠心耿耿。同時,重案組警官陸啟昌(胡軍)和黃志誠(黃秋生)則帶隊緊盯現場情況,打算見機行事,盼能一舉逮捕在場份子。
跟無間道1一樣
只是兩位主角換人當了

人物介紹

劉健明 陳冠希 
韓琛手下,見習督察,黃志誠下屬。

陳永仁 (余文樂飾) 
黃志誠的臥底,倪坤的私生子。
倪永孝同父異母弟弟。

黃志誠 ( 黃秋生飾演) 
韓琛、Mary的好友,督察,劉健明上司。

韓琛 (曾志偉飾演) 
Mary老公,黃志誠的好友。

Mary (劉嘉玲飾演) 
韓琛的妻子,黃志誠的好友。

倪永孝 吳鎮宇 
黑幫龍頭,倪坤的兒子,陳永仁同父異母的哥哥

陸啟昌 胡軍 黃志誠拍檔,總督察,陳永仁、羅繼賢上司

傻強 杜汶澤 韓琛手下,陳永仁好友

羅繼賢 張耀揚 羅雞
陸啟昌的臥底,倪永孝得力手下

三叔 廖啟智 倪坤的弟弟

倪永孝的叔叔

倪坤 張同祖 黑幫龍頭,倪永孝、陳永仁父親

甘地 方平 黑幫四大頭目

黑鬼 敖志君 黑幫四大頭目

國華 黃岳泰 黑幫四大頭目

文拯 陳德森 黑幫四大頭目

倪永義 陳望華 倪坤的兒子

倪永忠 連凱 倪坤的兒子

梁Sir 尹志強 內務部警司

唯一不同的是,女主角Mary是劉嘉玲><''

無間道Ⅱ裡面沒有心兒。

只是Ⅱ劇情有點複雜&最難懂的@@


無間道Ⅲ:終極無間

《無間道Ⅲ:終極無間》(Infernal Affairs Ⅲ)為2003年香港出產的警匪電影作品。

劇情簡介

* 2001年:這是最好的時代

臥底警官陳永仁在黑道老大韓琛麾下潛伏兩年,終於獲派與神秘的內地商人沈澄商討運毒交易,陳永仁卻不知已踏進琛佈下的陷阱。警司黃志誠為了掩護陳永仁的臥底身份,與律政司交涉讓他會見李醫生進行心理輔導,結果李醫生逐漸成為了陳永仁的精神支柱,兩人更產生微妙關係。此時,韓琛卻命令仁進行一樁黑吃黑的走私交易,並企圖對沈澄痛下殺手。陳永仁為了完成臥底任務,在不知被陷害的情形下,踏出最冒險的一步……

* 2004年:這是最壞的時代

陳永仁殉職後十個月,黑道臥底劉健明警官被架空職權,負責瑣碎的警署工作。眼看年輕總督察楊錦榮成為警隊內的新星,劉健明彷彿看見以前的自己。但更相似的,是楊錦榮竟可能同是黑幫派入警隊的臥底!明多番追查,卻總被一個神秘的瘸子阻撓,原來他竟是韓琛舊日的生意夥伴沈澄。當楊錦榮與沈澄聯手對付自己時,劉健明被逼著面對自己隱藏的過去,直到最後才發現,原來這兩個人竟然是……

人物角色

劉健明 (劉德華飾演) 
內務部高級督察

陳永仁 (梁朝偉飾) 
黃志誠臥底

楊錦榮 ( 黎明飾演) 
警局總督察,也是劉健明上司,不過沈澄(公安臥底)以及韓琛有些一些恩怨,最後被劉健明發現,被一槍打死。

沈澄 (陳道明飾演) 
內地公安臥底,跟韓琛 是好朋友。

李心兒 (陳慧琳飾演) 
心理醫生,是陳永仁生前最愛女生。

黃志誠 黃秋生 警司

韓琛 曾志偉 黑道首領

徐偉強 杜汶澤 韓琛手下

林國平 林家棟 警員

無間道~無間道Ⅲ 終極無間 小片段。

無間道1 國語 點擊此處瀏覽連結http://www.youtube.com/watch?v=WViIAT-u9dY&feature=player_embedded

無間道2 點擊此處瀏覽連結http://www.youtube.com/watch?v=a5JXFqaswag&feature=player_embedded#! 

無間道--我想當好人!! 點擊此處瀏覽連結http://www.youtube.com/watch?v=l2tVN-rW9kg&feature=player_embedded 

無間道3 再見 警察 劉德華 自殺 點擊此處瀏覽連結http://www.youtube.com/watch?v=YbPT7v338N4&feature=player_embedded 

沒聽過以及沒看過感覺很陌生吧!

其實說陳永仁&劉健明十年前就認識,

而且就在同一個受訓當警察,

而陳永仁因為一些事情離開警局訓練所放棄當警察,

後來陳永仁投靠韓琛 ,也就是黑幫老大,而劉健明成功進入警局,當任警察職務。 

十年後因為陳永仁也剛好進入警局當任警察。

曾經相識朋友變成同事,後來陳永仁意外慘死,劉健明四處找真兇。

當中關鍵人物李心兒、(心兒),韓琛,以及劉健明女友–Mary。

唯一不同之處,無間道以及無間道Ⅲ 終極無間都是原班人馬,

無間道Ⅲ 終極無間,多加一些劇情&版本,人物也有新的角色。

無間道Ⅱ就依靠無間道劇情差不多。

一個警察臥底、另一個黑道臥底,誰是當好人、還是誰是當壞人哪一條路自己選擇。

好聽無間道歌曲

無間道3部曲主題曲 Infernal Affairs Song
點擊此處瀏覽連結http://www.youtube.com/watch?v=P5Y-aV5fFsQ&feature=player_embedded

無間道3主題曲-劉德華-自作自受MV 
點擊此處瀏覽連結http://www.youtube.com/watch?v=73k15lT7IuI&feature=player_embedded

無間道II主題曲-長空
點擊此處瀏覽連結http://www.youtube.com/watch?v=FqRO49sVynA&feature=player_embedded

每日歌曲

無間道 - 劉德華 梁朝偉
點擊此處瀏覽連結http://www.youtube.com/watch?v=gEfOL9bIw3E&feature=player_embedded
歌詞

詞:林夕 

曲:伍樂城 

唱:劉德華&梁朝偉

偉:不呀不願意結束 我還沒有結束 無止盡的旅途 

華:看著我沒停下腳步 已經忘了身在何處 

偉:誰能改變人生的長度 誰知道永恒有多麼恐怖 

華:誰了解生存往往比命運還殘酷 只是沒有人願意認輸 

偉:我們都在不斷趕路忘記了出路 在失望中追求偶爾的滿足

華:我們都在夢中解脫清醒的苦 流浪在燈火闌珊處

合:去不到終點回到原點 享受那走不完的路

華:誰能改變人生的長度 誰知道永恒有多麼恐怖 

偉:誰了解生存往往比命運還殘酷 只是沒有人願意認輸 

華:我們都在不斷趕路忘記了出路 在失望中追求偶爾的滿足

偉:我們都在夢中解脫清醒的苦 流浪在燈火闌珊處

合:去不到終點回到原點 享受那走不完的路

華:一路上演出難得糊塗

偉:一路上回顧難得麻木 

華:在這條請你無間的路 

偉:讓我想你 華:你想我 合:怎麼會孤獨

合:我們都在不斷趕路忘記了出路 在失望中追求偶爾的滿足

我們都在夢中解脫清醒的苦 流浪在燈火闌珊處

既然沒終點回到原點 我想我們都不...不在乎
-------------------------------------------------------------------------------------------------------
下載教學步驟一:
進入下載畫面之後,移動到網頁右下方你會看到"普通下載"的按鈕,選擇按下"普通下載"等一下下會出現識別碼,依照顯示的識別碼輸入即可。

下載教學步驟二:
移動到網頁右上方你會看到倒數的秒數出現,等待秒數完成後按下"普通下載"即可下載。

PS:如果識別碼不清楚可以選擇更新輸入後確定等待約20秒即可下載,下載點不支援 訊雷、快車、BT..等等續傳軟體,請使用IE瀏覽器下載。

點擊此處瀏覽連結下載教學網頁圖片請點這裡
KMPlayer Ver.2.9.4.1436影音播放軟體 (內含加掛MP3插件 無所不播無所不放免安裝版)→ 點擊此處瀏覽連結下載點這裡
FileServe◎Mipony 1.2.2免費空間下載加速工具 地址→ 點擊此處瀏覽連結下載點這裡
xun6◎Mipony 1.2.2免費空間下載加速工具 地址→ 點擊此處瀏覽連結下載點這裡
------------------------------------------------------------------------
2002 梁朝偉 劉德華 主演《無間道ⅠInfernal Affairs》高清BD-MKV國粵語中字
------------------------------------------------------------------------ 
點擊此處瀏覽連結掛機網賺 20dollars2surf,全自動衝浪掛機也可賺錢 點擊此處瀏覽連結※內附完整教學圖※
點擊此處瀏覽連結分割檔可以使用HJSplit 2.3工具合併
點擊此處在新視窗瀏覽實際大小的圖片HJSplit 2.3 檔案分割、合併、比對 繁體中文免安裝版 下載地址→
點擊此處瀏覽連結下載點這裡
點擊此處在新視窗瀏覽實際大小的圖片
BD-720P [RMVB]《無間道ⅠInfernal Affairs》下載連結資料夾:
點擊此處在新視窗瀏覽實際大小的圖片
點擊此處瀏覽連結點擊此處注冊後可以免費得到一個500GB的空間獲得高速下載通道: 
點擊此處在新視窗瀏覽實際大小的圖片點擊此處瀏覽連結其它香港三級片下載點這裡
點擊此處在新視窗瀏覽實際大小的圖片
點擊此處瀏覽連結點擊此處註冊後可以免費得到一個750GB的空間獲得高速下載通道:
點擊此處在新視窗瀏覽實際大小的圖片點擊此處瀏覽連結下載點這裡
點擊此處在新視窗瀏覽實際大小的圖片Folder link:點擊此處瀏覽連結http://www.wupload.com/folder/528160 

無間道ⅠInfernal Affairs
點擊此處在新視窗瀏覽實際大小的圖片點擊此處瀏覽連結無間道Ⅰ.Infernal.Affairs.1.BD.720P.rmvb

無間道Ⅱ Infernal Affairs Ⅱ
點擊此處在新視窗瀏覽實際大小的圖片點擊此處瀏覽連結無間道Ⅱ.Infernal.Affairs.2.BD.720P.rmvb

無間道Ⅲ Infernal AffairsⅢ
點擊此處在新視窗瀏覽實際大小的圖片點擊此處瀏覽連結無間道Ⅲ.Infernal.Affairs.3.BD.720P.rmvb

Infernal.Affairs.1.BD.720P.rmvb.001 002 003 點擊此處瀏覽連結分割檔可以使用HJSplit 2.3工具合併
點擊此處在新視窗瀏覽實際大小的圖片HJSplit 2.3 檔案分割、合併、比對 繁體中文免安裝版 下載地址→
點擊此處瀏覽連結下載點這裡
※wupload下載教學※
點擊此處瀏覽連結點擊此處在新視窗瀏覽實際大小的圖片

, , , , , , , ,

☜♥☞阿德 發表在 痞客邦 PIXNET 留言(0) 人氣()