2006 TVB 黎耀祥、鄭嘉穎 主演 《飛短留長父子兵 Trimming Success》【480P高清TV粵語中字】FS WU
【劇 名】:飛短留長父子兵
【英 名】:Trimming Success
【監 制】:梁材遠
【編 導】:譚禮賢
【編 審】:陳靜儀
【編 劇】:陳靜儀、馬志勤
【日 期】:2006年5月15日-6月9日
【製 作】:2005年3月
【播出時間】:星期一至五 8:30PM 翡翠台、8:30PM 高清翡翠台
【首播日期】:2006年5月15日
【類 型】:時裝愛情
【製 作】:香港電視廣播有限公司 
【集 數】:20集
【接 檔】: 女人唔易做←→上一檔:5月14日 / 下一檔:6月13日 ←→ 男人之苦
【主 演】:黎耀祥(飾 何祖昇)、鄭嘉穎(飾 范天朗)、陳松伶(飾 彭 澄)、陳敏之(飾 高卓琪)
【語 言】:粵語
【字 幕】:內坎中文
【格 式】:MKV
【影片大小】:433 MB
【官方網站】:點擊此處瀏覽連結http://tvcity.tvb.com/drama/trimming_success/frontpage/index.html or 點擊此處瀏覽連結http://www.tvbs.com.tw/TVBS_G/hkdrama/01.asp?code=20070214123138
【維基百科】:點擊此處瀏覽連結http://zh.wikipedia.org/wiki/飛短留長父子兵

點擊此處在新視窗瀏覽實際大小的圖片

點擊此處在新視窗瀏覽實際大小的圖片

點擊此處在新視窗瀏覽實際大小的圖片

※劇情簡介※
子承父業開創髮型屋
名髮型師天朗在蘭桂芳創立的Crossover髮型屋,由於技藝高超,兼待客細心,客人總是絡繹不絕,全都是名女藝人或高級模特兒,故Crossover開辦三年以來,業務總是蒸蒸日上,忙得天朗不可開交。而天朗亦有結識四年的同居模特兒女友卓琪,正是事業與愛情兩皆得意。可是,平時長袖善舞、機敏伶俐的天朗不知為何,總是未能解決自己與父親光榮之間的矛盾。
位於港島南岸,風景怡人,華洋雜處的赤柱正是天朗「生於斯、長於斯」之地。赤柱大街的一號舖位,開設著有數十年歷史的大眾理髮廳,乃天朗父親光榮多年來的心血,身為老闆的光榮亦親力親為的替客人剪髮,髮型師號碼為一號,故當赤柱的老街坊提起「赤柱一號」時,都會想起光榮和他的大眾理髮廳。
各有宏願欠溝通 父子起衝突
光榮待人以誠,熱心公益,亦熱愛家庭,是個傳統的好丈夫好父親。只是光榮自己雖非常敬業樂業,卻希望自己的兒子能有一個更好的前途,不想只是當一個別人口中的「洗頭仔」、「剪髮佬」,故一心供兩個兒子到外國升讀大學,但次子天明至中七輟學後,一直遊手好閒,只有志於滑浪風帆運動,父子倆因這分歧而極不咬弦,身為妻子和母親的淑英自然擔憂,便致電天朗要他回家勸解。
天朗回家後,最終卻勸解不成,反而與光榮大吵一場,光榮還在盛怒中抖出當年曾送天朗到外地升讀大學,但天朗在外地竟瞞著光榮,私自往修讀髮型設計,令光榮大為不滿。
青梅竹馬只可惜神女有心
天朗失落之際,於聖士提反灣巧遇童年摯友澄,澄是滑浪風帆的教練,亦是機械工程師,現正幫其父根打理祖傳的士丹尼船廠。澄小時與天朗同讀一所小學,當時根曾逞強的替澄剪髮,結果剪出來的效果相當差勁,醜得令澄不敢上學,只懂躲在暗處哭,被天朗瞧見了,便拿起勞作用的小剪刀替澄修剪。天朗剪得居然似模似樣,令澄破涕為笑,澄從此便對天朗抱有好感。
一日,赤柱來了個不速之客,自稱"拐"仔堅兒子的祖昇從荷蘭回來,為要完成亡父心願。光榮深覺祖昇孝義,大為欣賞。祖昇亦感激光榮當年恩情,對光榮及淑英皆敬重有加,程度比天朗和天明還深,最後甚至入住於光榮的家,天朗兩兄弟在旁瞧著,心裡滿不是味兒,加上赤柱褲屋的一個員工慧姿欲偷天后廟內的香油箱錢,根誤以為昇是小偷,更痛恨之,穎和樂亦覺祖昇居心叵測。
根對祖昇心生厭惡,但祖昇卻非常欣賞澄,並對澄展開熱烈追求,澄對祖昇的追求攻勢感到又好氣又笑,但最終仍婉拒。原來澄每次遇上追求時,心中便不禁把追求者與天朗暗地相比,總覺天朗勝一籌。祖昇說明澄一直暗戀天朗,更鼓勵澄向天朗表達心意,但澄卻怕破壞現在與天朗的友情而拒絕。祖昇至此亦和澄發展出一段純真的兄妹之情。
究竟澄能否突破友誼界限和天朗發展成為情侶?而天朗面對澄及同居女友卓琪這段三角戀又如何選擇?而父親光榮跟兒子的誤會和深層矛盾又可否冰釋前嫌呢?一個個如髮絲般糾纏不清的親情、愛情和友情,會逐漸一一解開。

※故事大綱※
光榮祖居赤柱,一直以來以理髮為生,而他的兒子天朗更是高級髮型屋「飛短留長」的首席髮型師,為人腦筋靈活,而且辦事能力高,深得客戶信任。 
光榮因細仔天明在英國的成績欠佳而大為震怒,淑英唯有趁「做禡」急召天朗回家。 
天朗返回赤柱,重遇舊同學彭澄,她雖然身為女兒家,但卻是機械工程師,更是滑浪風帆高手;其父親彭根是赤柱船廠東主,妻子早死,所以父兼母職,對一對女兒愛護有加。 
彭根被選為新一屆街坊福利會的理事長,為慶祝新委員會就任,眾委員決定舉辦盤菜宴,而且更會向年長街坊大派禮物,為了舉辦是次盤菜宴,所以便要向各商戶收取一千元的費用,當中體育用品店的阿威對此舉甚為反感。 
為籌辦盤菜宴,淑英到市區購買贈予老人家的金器,因髮型屋突然有事而天朗未能送她回家,以致她跌倒受傷,光榮父子因而再次鬧翻。天朗記起光榮之前提及老人家適宜穿冷背心,所以特地在盤菜宴之上送來一批贈予長者,令光榮大為安慰。

人物關係圖↓
點擊此處在新視窗瀏覽實際大小的圖片

點擊此處瀏覽連結※人物詳細介紹※

※劇  照※ 
點擊此處在新視窗瀏覽實際大小的圖片

點擊此處在新視窗瀏覽實際大小的圖片

點擊此處在新視窗瀏覽實際大小的圖片

點擊此處在新視窗瀏覽實際大小的圖片

點擊此處在新視窗瀏覽實際大小的圖片

點擊此處在新視窗瀏覽實際大小的圖片

※截  圖※
點擊此處在新視窗瀏覽實際大小的圖片
※影片格式資訊※
General
Complete name : 飛短留長父子兵.Trimming.Success.EP01.mkv
Format : Matroska
File size : 433 MiB
Duration : 43mn 28s
Overall bit rate : 1 392 Kbps
Movie name : 01
Encoded date : UTC 2011-09-08 18:38:47
Writing application : mkvmerge v4.8.0 ('I Got The...') 編譯於 May 24 2011 03:12:58
Writing library : libebml v1.2.0 + libmatroska v1.1.0
Video #1
ID : 1
Format : AVC
Format/Info : Advanced Video Codec
Format profile : High@L4.0
Format settings, CABAC : Yes
Format settings, ReFrames : 3 frames
Muxing mode : Container profile=Unknown@4.0
Codec ID : V_MPEG4/ISO/AVC
Duration : 43mn 26s
Bit rate : 1 172 Kbps
Nominal bit rate : 1 200 Kbps
Width : 720 pixels
Height : 540 pixels
Display aspect ratio : 4:3
Frame rate : 29.970 fps
Resolution : 24 bits
Colorimetry : 4:2:0
Scan type : Progressive
Bits/(Pixel*Frame) : 0.101
Stream size : 364 MiB (84%)
Title : Move(影片軌)
Writing library : x264 core 68 r1195M 5d75a9b
Encoding settings : cabac=1 / ref=3 / deblock=1:0:0 / analyse=0x3:0x133 / me=umh / subme=7 / psy_rd=1.0:0.0 / mixed_ref=1 / me_range=16 / chroma_me=1 / trellis=1 / 8x8dct=1 / cqm=0 / deadzone=21,11 / chroma_qp_offset=-2 / threads=3 / nr=0 / decimate=1 / mbaff=0 / bframes=3 / b_pyramid=0 / b_adapt=1 / b_bias=0 / direct=3 / wpredb=1 / keyint=300 / keyint_min=30 / scenecut=40 / rc=2pass / bitrate=1200 / ratetol=1.0 / qcomp=0.60 / qpmin=10 / qpmax=51 / qpstep=4 / cplxblur=20.0 / qblur=0.5 / vbv_maxrate=25000 / vbv_bufsize=25000 / ip_ratio=1.40 / pb_ratio=1.30 / aq=1:1.00
Language : Chinese
Audio #2
ID : 2
Format : AC-3
Format/Info : Audio Coding 3
Codec ID : A_AC3
Duration : 43mn 28s
Bit rate mode : Constant
Bit rate : 192 Kbps
Channel(s) : 2 channels
Channel positions : L R
Sampling rate : 48.0 KHz
Stream size : 59.7 MiB (14%)
Title : Cantonese(粵語)
Language : Chinese 

下載教學步驟一:
進入下載畫面之後,移動到網頁右下方你會看到"普通下載"的按鈕,選擇按下"普通下載"等一下下會出現識別碼,依照顯示的識別碼輸入即可。

下載教學步驟二:
移動到網頁右上方你會看到倒數的秒數出現,等待秒數完成後按下"普通下載"即可下載。

PS:如果識別碼不清楚可以選擇更新輸入後確定等待約20秒即可下載,下載點不支援 訊雷、快車、BT..等等續傳軟體,請使用IE瀏覽器下載。

點擊此處瀏覽連結下載教學網頁圖片請點這裡
KMPlayer Ver.2.9.4.1436影音播放軟體 (內含加掛MP3插件 無所不播無所不放免安裝版)→ 點擊此處瀏覽連結下載點這裡
FileServe◎Mipony 1.2.2免費空間下載加速工具 地址→ 點擊此處瀏覽連結下載點這裡
xun6◎Mipony 1.2.2免費空間下載加速工具 地址→ 點擊此處瀏覽連結下載點這裡
-------------------------------------------------------------
2006 TVB 黎耀祥、鄭嘉穎 主演 《飛短留長父子兵 Trimming Success》【480P高清TV粵語中字】FS WU
-------------------------------------------------------------
點擊此處瀏覽連結點擊此處注冊後可以免費得到一個500GB的空間獲得高速下載通道: 
點擊此處瀏覽連結掛機網賺 20dollars2surf,全自動衝浪掛機也可賺錢 點擊此處瀏覽連結※內附完整教學圖※
點擊此處在新視窗瀏覽實際大小的圖片
HDTV-720P [MKV]
< 飛短留長父子兵 Trimming Success 第01集至20集[所有集數] 下載連結資料夾 >
點擊此處在新視窗瀏覽實際大小的圖片
點擊此處瀏覽連結其他港劇下載點這裡
點擊此處在新視窗瀏覽實際大小的圖片
點擊此處瀏覽連結點擊此處註冊後可以免費得到一個750GB的空間獲得高速下載通道:
飛短留長父子兵 Trimming Success 20全集 下載連結資料夾 
點擊此處瀏覽連結點這裡註冊免費會員=即可享受800k/s下載速度 僅等待10秒!
點擊此處在新視窗瀏覽實際大小的圖片Folder link:點擊此處瀏覽連結http://www.wupload.com/folder/562721
點擊此處在新視窗瀏覽實際大小的圖片點擊此處瀏覽連結http://www.wupload.com/file/177771846/Trimming.Success.EP20.mkv
點擊此處在新視窗瀏覽實際大小的圖片點擊此處瀏覽連結http://www.wupload.com/file/177780745/Trimming.Success.EP19.mkv
點擊此處在新視窗瀏覽實際大小的圖片點擊此處瀏覽連結http://www.wupload.com/file/177732176/Trimming.Success.EP18.mkv
點擊此處在新視窗瀏覽實際大小的圖片點擊此處瀏覽連結http://www.wupload.com/file/177730847/Trimming.Success.EP17.mkv
點擊此處在新視窗瀏覽實際大小的圖片點擊此處瀏覽連結http://www.wupload.com/file/177686787/Trimming.Success.EP16.mkv
點擊此處在新視窗瀏覽實際大小的圖片點擊此處瀏覽連結http://www.wupload.com/file/177666910/Trimming.Success.EP15.mkv
點擊此處在新視窗瀏覽實際大小的圖片點擊此處瀏覽連結http://www.wupload.com/file/177628255/Trimming.Success.EP14.mkv
點擊此處在新視窗瀏覽實際大小的圖片點擊此處瀏覽連結http://www.wupload.com/file/177486794/Trimming.Success.EP13.mkv
點擊此處在新視窗瀏覽實際大小的圖片點擊此處瀏覽連結http://www.wupload.com/file/177536063/Trimming.Success.EP12.mkv
點擊此處在新視窗瀏覽實際大小的圖片點擊此處瀏覽連結http://www.wupload.com/file/177443335/Trimming.Success.EP11.mkv
點擊此處在新視窗瀏覽實際大小的圖片點擊此處瀏覽連結http://www.wupload.com/file/177399194/Trimming.Success.EP10.mkv
點擊此處在新視窗瀏覽實際大小的圖片點擊此處瀏覽連結http://www.wupload.com/file/177331462/Trimming.Success.EP09.mkv
點擊此處在新視窗瀏覽實際大小的圖片點擊此處瀏覽連結http://www.wupload.com/file/177424896/Trimming.Success.EP08.mkv
點擊此處在新視窗瀏覽實際大小的圖片點擊此處瀏覽連結http://www.wupload.com/file/177266818/Trimming.Success.EP07.mkv
點擊此處在新視窗瀏覽實際大小的圖片點擊此處瀏覽連結http://www.wupload.com/file/176920127/Trimming.Success.EP06.mkv
點擊此處在新視窗瀏覽實際大小的圖片點擊此處瀏覽連結http://www.wupload.com/file/176911258/Trimming.Success.EP05.mkv
點擊此處在新視窗瀏覽實際大小的圖片點擊此處瀏覽連結http://www.wupload.com/file/176893097/Trimming.Success.EP04.mkv
點擊此處在新視窗瀏覽實際大小的圖片點擊此處瀏覽連結http://www.wupload.com/file/176904075/Trimming.Success.EP03.mkv
點擊此處在新視窗瀏覽實際大小的圖片點擊此處瀏覽連結http://www.wupload.com/file/176891744/Trimming.Success.EP02.mkv
點擊此處在新視窗瀏覽實際大小的圖片點擊此處瀏覽連結http://www.wupload.com/file/176884335/Trimming.Success.EP01.mkv
※wupload下載教學※
點擊此處瀏覽連結點擊此處在新視窗瀏覽實際大小的圖片

, , ,

☜♥☞阿德 發表在 痞客邦 PIXNET 留言(0) 人氣()