2011最新動作巨製《武俠》甄子丹、金城武、湯唯主演高清BD-MKV國語中字【FS MU】
【劇 名】:武俠 
【英 名】:Swordsmen
【別 名】:Wu Xia
【年 代】:2011
【地 區】:中國
【類 型】:動作 / 劇情 / 功夫
【語 言】:國語/四川話
【字 幕】:外掛簡體中文/繁體中文
【尺 寸】:1280 x 544
【片 長】:01:50:55
【格 式】:MKV-X264 Audio:AC3-2CH
【格 式】:MKV
【容 量】:3.50 GB
【上 映】:2011年7月4日
【發 行】:星美傳媒集團有限公司/立基電影發行
【導 演】:陳可辛 Peter Chan
【監 製】:陳可辛
【編 劇】:陳可辛、林愛華
【主 演】:甄子丹 Donnie Yen、金城武 Takeshi Kaneshiro、湯唯 Wei Tang、王羽 Yu Wang、惠英紅 Kara Hui、李小冉 XiaoRan Li、姜武 Jiang Wu
【官方網站】:
【維基百科】:點擊此處瀏覽連結http://zh.wikipedia.org/wiki/武俠_(電影)
【IMDB評分】:7.2/10 (535 votes) 
【IMDB鏈接】:點擊此處瀏覽連結http://www.imdb.com/title/tt1718199/

點擊此處在新視窗瀏覽實際大小的圖片

點擊此處在新視窗瀏覽實際大小的圖片

點擊此處在新視窗瀏覽實際大小的圖片

點擊此處在新視窗瀏覽實際大小的圖片

※劇情簡介※
1917年,中國西南邊陲的劉家村。劉金喜(甄子丹 飾)和妻子阿玉(湯唯於飾)共同撫養兩個兒子方正和曉天,日子平淡且幸福。直到某一天,兩個不速之客打破了劉家村的平靜,也摧毀著金喜一家的生活。這二人企圖洗劫村中的錢櫃,被剛好在此的金喜撞見,一陣混亂打鬥,二匪稀里糊塗被金喜打死。由於其中一人是政府通緝的要犯,因此縣官大喜過望,村裡人也將金喜奉為大英雄。但是,這看似普普通通的盲打誤殺卻引起一個人的懷疑,他名叫徐百九(金城武飾),是縣衙的捕快。從蛛絲馬跡上來看,二匪系死於武功高強人之手,徐百九由此留在村裡,對金喜展開了連番的觀察、調查與試探。
在這一過程中,金喜神秘的真實身份漸漸浮出水面,而劉家村也面臨著一場空前的危機……
幕後製作:
金城武變身「四川柯南」:
繼湯唯的「絕望主婦」角色曝光之後,「四川柯南」金城武的角色再度曝光。在片中,金城武扮演一位偵探,滿口四川方言,整天與「屍體」為伴,十分「重口味」。
「古董草帽」隨身跟保險箱
「不要帥,要怪」,這是金城武在《武俠》中的造型理念,不過金城武卻自嘲自己是「婦科醫生」。「雖然金城武只有一套服裝,但從頭到腳都是奢侈品,貨真價實的古董」,據《武俠》的服裝指導吳裡璐透露,金城武在片中戴的古董草帽全世界只有一頂,劇組還特地配了一個保險箱,拍戲期間,金城武走到哪兒,保險箱帶到哪兒。
一天車輪「驗屍」100具
據悉,金城武在《武俠》中的第一場戲就是「驗屍」,雖然「屍體」都是用特殊材料合成的,但為了保證其「新鮮」的質地,必須在一天內拍攝完成,結果金城武的「驗屍」戲累積拍了100多條,成為了名副其實的「驗屍帝」。金城武坦言,和「屍體」演戲心有餘悸,噩夢連連。為了讓「驗屍」顯得專業,金城武還拜一位外科大夫為師,從開膛到取樣,每個架勢都認真學習。
被各種「四川話」搞暈
在片中,金城武的台詞全部是四川話,「第一天下了決心,就開始說了,也沒有準備,所以鬧了很多笑話。後來在場工裡面找了一個四川人,他念一句,我說一句,就這麼稀里糊塗地說了兩天,到第三天,我們特地從成都調來了一個導遊當老師,但發現原來之前的場工和這個導遊的發音又不一樣,於是瞬間我就混亂了,到底聽誰的呢?」昨日,金城武表示,為了學川話,他都把「師父」們說的話放到MP3里反覆聽,但因為「師父」們的口音都不一樣,所以他的四川話版本也是一個「MIX版」(混合版)。
關於湯唯被刪和增補的戲份
湯唯的戲份比想像中的少,《武俠》說到底還是一部雙雄片,給湯唯這個人物的空間有限。大約在影片開場20分鐘左右,湯唯和甄子丹在浴室裡討論著要不要用魚鰾,或者食水銀來避孕的私房話,下一個鏡頭卻非常突兀地轉移了,聽說有一場激情戲被刪了。陳可辛導演表示,「刪戲只有一個目的,是否為劇情主線服務,不管激情或不激情,再有賣點的戲,若偏離了軌道,一樣得刪。維納斯的手臂都要砍,刪一場戲算什麼?」陳可辛否認了刪戲是否另有原因:「《武俠》是我個人的獨立創作,只因劇情而刪,無關其他。」
陳可辛曾透露《武俠》在國內公映的版本將比在戛納放映的版本長出八九分鐘,據悉他增加了一場湯唯下水捕魚的戲。這場戲講的是湯唯和甄子丹第一次在溪邊見面,湯唯是如何喜歡上他的一幕。陳可辛稱,「湯唯手長腿長,人又高,但頭很小,比例有點怪怪的。我其實一直都喜歡有點怪怪樣子的人,尤其是女生,她給我的印象很像我小時候看過的卡通片《大力水手》的女朋友奧莉芙,我對奧莉芙情有獨鍾,在我的第一個電影《雙城故事》裡,我就把張曼玉的名字叫成奧莉芙了。」除「捕魚戲」和湯唯與甄子丹的感情戲外,國內版本中還增補了一些中國元素的空鏡頭。
電影花絮:
·本片女主角方面曾傳出多個版本,鞏俐、趙薇、湯唯等均是選擇之一,湯唯亮相雲南拍攝地最終驗證了女主角歸屬。

《武俠》BD版,絕對超值1917年,中國西南邊陲的劉家村。劉金喜(甄子丹 飾)和妻子阿玉(湯唯 飾)共同撫養兩個兒子方正和曉天,日子平淡且幸福。直到某一天,兩個不速之客打破了劉家村的平靜,也摧毀著金喜一家的生活。這二人企圖洗劫村中的錢櫃,被剛好在此的金喜撞見,一陣混亂打鬥,二匪稀里糊塗被金喜打死。由於其中一人是政府通緝的要犯,因此縣官大喜過望,村裡人也將金喜奉為大英雄。但是,這看似普普通通的盲打誤殺卻引起一個人的懷疑,他名叫徐百九(金城武 飾),是縣衙的捕快。從蛛絲馬跡上來看,二匪系死於武功高強人之手,徐百九由此留在村裡,對金喜展開了連番的觀察、調查與試探。
在這一過程中,金喜神秘的真實身份漸漸浮出水面,而劉家村也面臨著一場空前的危機…… 

故事背景為1917年中國雲南邊陲的劉家村。
劉金喜和妻子阿玉共同撫養著兩個兒子方正和曉天,日子過的平淡安寧。有一天,外地來的兩名劫匪企圖洗劫村中的錢櫃,被剛好在此的金喜撞見,一陣混亂打鬥過後,二名匪徒稀里糊塗被劉金喜打死。死去的匪徒其中一人是政府十大通緝要犯閻東生,因此縣官大喜過望,村裡人也將劉金喜奉為大英雄。
不過,這看似普普通通的盲打誤殺卻引起一個人的懷疑,他就是縣衙的捕快徐百九。從蛛絲馬跡上來看,二匪皆是死於武功高人之手,以劉金喜區區造紙工人的身手,不可能將兩人打死。徐百九因此留在村裡,對劉金喜展開了連番的觀察、調查與試探,後來終於發現,原來劉金喜的真實身分,其實是七十二地煞的二當家唐龍,當徐百九回到縣城後,便向當地衙門拿取牌令準備捉拿唐龍,卻不知衙門的負責人將這件事情密報給了七十二地煞的教主,也就是唐龍的生父。
在徐百九的警隊到達劉家村之前,七十二地煞的人馬早已搶先一步到達,劉家村也陷入了即將滅頂的危機之中。

  繼《如果·愛》、《投名狀》等票房巨製後,陳可辛導演首次進軍武俠動作片領域,在《武俠》裡,他將通過「微觀武俠、醫學武俠、科學武俠」的概念重新定義銀幕上的武俠片動作風格與視覺效果水平。 
  甄子丹繼《十月圍城》後再與陳可辛合作,並兼任動作指導,影片裡AB版之戰、跳房子、鬥牛、以及獨臂刀對決等段落更是在「微觀武俠」的概念下,開創了武俠片視覺的一個新起點。此次甄子丹扮演一個由冷血殺手轉變而來的平凡鄉民,但罪惡的過去還是不肯放過他,緊隨而至。金城武此次在電影裡則以「怪」代「帥」,一口四川方言,飾演了一個一心要將甄子丹繩之於法的偵探。湯唯此次在電影裡首次嘗試媽媽的角色,在電影裡為了「護巢」,不惜一切和金城武展開了一場「家庭保衛戰「。

  ※故事概要:※

  俠客劉金喜(甄子丹)隱姓埋名,與妻子阿玉(湯唯)和一雙兒子生活在一處偏遠的小村莊,卻被捲入一樁離奇的命案。捕快徐百九(金城武)是一位「武癡」,在查案的過程中,嗅到了劉金喜身上必有過人之處。不料,恰恰因為他的好奇,迫使劉金喜面臨和七十二地煞教主(王羽)的生死對決,他的家庭危在旦夕,他們的家園,遭受滅頂之災……
  有著導演和監製雙重身份的陳可辛,在進入內地以來,憑借《如果·愛》、《投名狀》、《十月圍城》、《神奇俠侶》4部作品近6億人民幣的高票房宣告了自己當仁不讓的國內一線大導地位。而早在上世紀90年代,他的作品便已經在評論界及賣座率上創下紀錄,其中包括他首執導筒的獲獎之作《雙城故事》,以及一系列他自創公司UFO出品的電影,如《風塵三俠》、《金枝玉葉》與《甜蜜蜜》。而《甜蜜蜜》更於當年香港金像獎之夜橫掃9尊小金人,創下歷史記錄,且被時代雜誌收入1997年最好的十部電影之中。
  1998年,陳可辛遠赴好萊塢為史蒂芬·斯皮爾伯格執導了「夢工廠」電影《情書》。2000年,他創辦了以高質素為目標的ApplausePictures公司,受眾定位橫跨整個亞洲。旗下出品電影包括《晚娘》、《春逝》、《見鬼》系列,《三更》和《三更之回家》、《金雞》和《金雞2》,以及《春田花花同學會》。
  他之後的歌舞片《如果·愛》,成為了當年的票房翹楚,在內地、香港以及台灣共獲得了29個獎項。而他監製的《門徒》以及監、導的《投名狀》兩部電影在2007年都取得了極高的票房收入。《投名狀》更是取得了國內2.2億人民幣以及海外四千萬美元的亞洲票房,同時包攬最佳導演、最佳影片等8項金像獎與3座金馬獎。
  2009年,陳可辛監製了陳德森導演的《十月圍城》,這部收入近3億的合拍大片,在亞洲累計票房超過五千萬美元。也再次以18項提名,最終斬獲8座金像獎小金人的姿態打破記錄,包括最佳影片、最佳導演、最佳男配、最佳動作設計等。而主演王學圻也憑此片獲得亞洲電影節及香港評論協會的影帝殊榮,為陳可辛作品231項提名、146次獲獎的記錄再添一瓦。

  甄子丹:
  90年代便成為香港知名動作巨星的甄子丹在2000年推出了他的好萊塢處女作《挑戰者4:終極之戰》,同時也為《刀鋒戰士2》指導動作特效。他在《英雄》裡令人印象深刻的演出讓他在動作領域之外也受到人們關注,其他作品如徐克的《七劍》、葉偉信的《殺破狼》、程小東的《江山美人》和陳嘉上的《畫皮》。他也為林超賢的《雙子神偷》、Geoffrey Sax的《風暴突襲者》、葉偉信的《龍虎門》和《導火線》等擔任動作指導。
  2008年,半傳記形式的功夫片《葉問》將李小龍的傳奇恩師搬上銀幕,同時也將甄子丹的演藝事業推向高峰,成為街知巷聞的國際巨星。他的表演同時贏得了第28屆金像獎影帝提名,之後的《十月圍城》更是延續風光。他由一個賭鬼最終走向無畏犧牲的戲劇性轉折受到了評論界和觀眾的一致好評。2010年,《葉問2》成為了當年本港票房之最,之後他在劉偉強的《精武風雲·陳真》中也擔任了動作指導。

  金城武:
  他是亞洲電影的萬人迷,粉絲橫跨整個泛亞地區。生於1973年台灣的他,爸爸是日本人,媽媽是中國人。在90年代初他以一系列台灣喜劇片開始了他的銀幕生涯,期間發行了數張個人唱片。與王家衛合作的《重慶森林》及《墮落天使》讓他成為真正的明星。而主演《不夜城》以及電視劇《上帝啊!請給我多一點時間吧》更是在之後讓他成為了日本最炙手可熱的巨星。
  金城武出演的電影風格多變,從奚仲文的《安娜·馬德蓮娜》、杜琪峰的《向左走,向右走》式浪漫愛情片,到張藝謀的《十面埋伏》、陳可辛的《投名狀》式古裝動作片,再到劉偉強的《傷城》式懸疑片,以及山崎貴的《回歸》、佐籐嗣麻子的《怪人二十面相》式科幻片,以及吳宇森的戰爭史詩《赤壁》系列。《武俠》是他繼《如果·愛》、《投名狀》之後,與陳可辛的第三次合作。

  湯唯:
  被紐約時代雜誌評為2007年15個最佳表演之一的湯唯,在未被李安從近萬名候選者中欽點出演《色,戒》中美麗危險的女間諜王佳芝以前,只在當地電視劇集中露臉出現。此片的國際性效應讓她一夜成名,可圈可點的表演也獲得了評論界以及觀眾的一致好評。44屆金馬最佳新人授予了她,以及第61屆戛納影展肖邦新人獎等。面對紛至沓來的片約,她謹慎擇片,出演了小成本的浪漫愛情喜劇《月滿軒尼詩》,同時進軍國際市場,出演獲得了韓國影后殊榮的《晚秋》一片。

※截  圖※
點擊此處在新視窗瀏覽實際大小的圖片
General
Complete name : 武俠.Swordsmen.2011.BD.720P.AC3.mkv
Format : Matroska
File size : 3.50 GiB
Duration : 1h 50mn
Overall bit rate : 4 540 Kbps
Encoded date : UTC 2011-08-25 16:29:29
Writing application : mkvmerge v4.9.1 ('Ich will') built on Jul 11 2011 23:53:15
Writing library : libebml v1.2.1 + libmatroska v1.1.1
Video #1
ID : 1
Format : AVC
Format/Info : Advanced Video Codec
Format profile : High@L3.1
Format settings, CABAC : Yes
Format settings, ReFrames : 5 frames
Muxing mode : Container profile=Unknown@3.1
Codec ID : V_MPEG4/ISO/AVC
Duration : 1h 50mn
Bit rate : 4 065 Kbps
Nominal bit rate : 4 157 Kbps
Width : 1 280 pixels
Height : 544 pixels
Display aspect ratio : 2.35:1
Frame rate : 25.000 fps
Resolution : 24 bits
Colorimetry : 4:2:0
Scan type : Progressive
Bits/(Pixel*Frame) : 0.234
Stream size : 3.13 GiB (90%)
Title : Move(影片軌)
Writing library : x264 core 116 r2057 0ba8a9c
Encoding settings : cabac=1 / ref=5 / deblock=1:-1:-1 / analyse=0x3:0x133 / me=umh / subme=9 / psy=1 / psy_rd=1.00:0.00 / mixed_ref=1 / me_range=16 / chroma_me=1 / trellis=2 / 8x8dct=1 / cqm=0 / deadzone=21,11 / fast_pskip=1 / chroma_qp_offset=-2 / threads=12 / sliced_threads=0 / nr=0 / decimate=1 / interlaced=0 / bluray_compat=0 / constrained_intra=0 / bframes=5 / b_pyramid=2 / b_adapt=2 / b_bias=0 / direct=3 / weightb=1 / open_gop=0 / weightp=2 / keyint=250 / keyint_min=25 / scenecut=40 / intra_refresh=0 / rc_lookahead=40 / rc=2pass / mbtree=1 / bitrate=4157 / ratetol=1.0 / qcomp=0.60 / qpmin=10 / qpmax=51 / qpstep=4 / cplxblur=20.0 / qblur=0.5 / ip_ratio=1.40 / aq=1:1.00
Language : Chinese
Audio #2
ID : 2
Format : AC-3
Format/Info : Audio Coding 3
Codec ID : A_AC3
Duration : 1h 50mn
Bit rate mode : Constant
Bit rate : 384 Kbps
Channel(s) : 2 channels
Channel positions : L R
Sampling rate : 48.0 KHz
Stream size : 303 MiB (8%)
Title : Mandarin(國語)
Language : Chinese

下載教學步驟一:
進入下載畫面之後,移動到網頁右下方你會看到"普通下載"的按鈕,選擇按下"普通下載"等一下下會出現識別碼,依照顯示的識別碼輸入即可。

下載教學步驟二:
移動到網頁右上方你會看到倒數的秒數出現,等待秒數完成後按下"普通下載"即可下載。

PS:如果識別碼不清楚可以選擇更新輸入後確定等待約20秒即可下載,下載點不支援 訊雷、快車、BT..等等續傳軟體,請使用IE瀏覽器下載。

點擊此處瀏覽連結下載教學網頁圖片請點這裡
KMPlayer Ver.2.9.4.1436影音播放軟體(內含加掛MP3插件 無所不播無所不放免安裝版)→ 點擊此處瀏覽連結下載點這裡
FileServe◎Mipony 1.2.2免費空間下載加速工具 地址→ 點擊此處瀏覽連結下載點這裡
xun6◎Mipony 1.2.2免費空間下載加速工具 地址→ 點擊此處瀏覽連結下載點這裡
------------------------------------------------------------------------
2011最新動作巨製《武俠 Swordsmen》甄子丹、金城武、湯唯主演高清BD-MKV國語中字
------------------------------------------------------------------------ 
點擊此處瀏覽連結掛機網賺 20dollars2surf,全自動衝浪掛機也可賺錢 點擊此處瀏覽連結※內附完整教學圖※
點擊此處瀏覽連結分割檔可以使用HJSplit 2.3工具合併
點擊此處在新視窗瀏覽實際大小的圖片HJSplit 2.3 檔案分割、合併、比對 繁體中文免安裝版 下載地址→
點擊此處瀏覽連結下載點這裡
點擊此處在新視窗瀏覽實際大小的圖片
BD-720P [MKV]《武俠 Swordsmen》下載連結資料夾:
點擊此處在新視窗瀏覽實際大小的圖片
點擊此處瀏覽連結點擊此處注冊後可以免費得到一個500GB的空間獲得高速下載通道: 
點擊此處在新視窗瀏覽實際大小的圖片點擊此處瀏覽連結其它香港三級片下載點這裡
點擊此處在新視窗瀏覽實際大小的圖片
點擊此處瀏覽連結點擊此處註冊後可以免費得到一個750GB的空間獲得高速下載通道:
點擊此處在新視窗瀏覽實際大小的圖片點擊此處瀏覽連結下載點這裡
點擊此處在新視窗瀏覽實際大小的圖片Folder link: 點擊此處瀏覽連結http://www.wupload.com/folder/559388
點擊此處在新視窗瀏覽實際大小的圖片點擊此處瀏覽連結武俠.Swordsmen.2011.BD.720P.AC3.mkv.001─009
點擊此處瀏覽連結HJSplit 2.3 檔案分割、合併、比對 繁體中文免安裝版 下載
點擊此處在新視窗瀏覽實際大小的圖片點擊此處瀏覽連結武侠.Swordsmen.2011.BD.720P.AC3.shi.srt 簡體中文
點擊此處在新視窗瀏覽實際大小的圖片點擊此處瀏覽連結武侠.Swordsmen.2011.BD.720P.AC3.sht.srt 繁體中文
※wupload下載教學※
點擊此處瀏覽連結點擊此處在新視窗瀏覽實際大小的圖片

, , , , , ,

☜♥☞阿德 發表在 痞客邦 PIXNET 留言(0) 人氣()