2011年TVB最新熱播劇集《不速之約》【720P高清TV粵語中字】FS WU空間下載
【劇 名】:不速之約
【英 名】:Men with No Shadows
【監 制】:潘嘉德
【編 導】:陳新俠、洪金潑、管國偉、錢穎芝
【編 審】:朱鏡祺、李綺華
【日 期】:2011年9月12日-2011年10月7日
【製 作】:2010年2月-2011年5月
【播出時間】:星期一至五 9:30PM 翡翠台、9:30PM 高清翡翠台
【首播日期】:2011年9月12日
【類 型】:時裝懸疑
【製 作】:香港電視廣播有限公司 
【集 數】:20集
【接 檔】:潛行狙擊 ←→上一檔:9月9日 / 下一檔:10月10日 ←→ 法證先鋒Ⅲ
【主 演】:歐陽震華(飾 江東健)、林峰(飾 邰風)、楊怡(飾 方小芳)、馬賽 (飾 江惠妹)、姜大衛(飾 唐經天)、黃智雯 (飾 邰欣)、黃淑儀 (飾 宋楚喬)、陳國邦 (飾 唐永燊)、周家怡 (飾 文嘉玲)、馮素波 (飾 金華喜)
【語 言】:粵語
【字 幕】:中文
【影片大小】:1.35 GB
【官方網站】:點擊此處瀏覽連結http://programme.tvb.com/drama/menwithnoshadows/
【維基百科】:點擊此處瀏覽連結http://zh.wikipedia.org/wiki/不速之約
【其他演員】:胡楓、程可為、黃釲瑩、尹詩沛、方紹聰、王東泰、司徒暉、石天欣、朱敏瀚、何傲兒、李君妍、李興華、李鴻杰、林遠迎、林影紅、徐萌、馬詠恩、張松枝、張智軒、郭田葰、陳亭嘉、陳偉洪、曾敏、湯俊明、黃梓瑋、黃瑩、黃耀煌、楊英偉、楊智朗、葉暐、趙希洛、劉秉賓、劉桂芳、潘宗揚、鄭子揚、謝珊珊、羅欣羚、羅鈞滿、蘇麗明、羅君左、魯振順、陳安瑩、羅天宇、菁暐、夏竹欣、鄺佐輝、潘冠霖、戴志偉、曾健明、阮兒、鍾鈺精、麥皓兒、陳榮峻、招石文、關浩揚、周寶霖、馬貫東、裘卓能、蘇恩磁、呂熙、王致迪、陳宛蔚、李穎芝、范彩兒、沈愛琳、邱頌兒、孫慧雪、杜港、徐玟晴、布偉傑、喬寶寶、黎秀英、單俊偉、潘芳芳、曾愛媚、朱維德、周麗欣
【播 放】:高清播放與具體劇情介紹 

點擊此處在新視窗瀏覽實際大小的圖片

點擊此處在新視窗瀏覽實際大小的圖片

劇情簡介
醉心藥理

江東健(歐陽震華飾)乃醫科畢業生,醉心研究藥理,曾經與藥廠合作研發一隻治癌藥物,因接受不了研發藥物期間試藥病人的死亡個案,令他中途退出轉職為診所醫生。
健自小與母親金華喜相依為命。健自給自足地生活,卻一直未能放下對父親拋妻棄子的怨恨。跟達的再婚妻子宋楚喬(黃淑儀飾)又冤家路窄,診所與喬的中醫館相鄰。

醫藥情緣

健是個笨拙老實人,因長期專注讀書及研藥,社交圈子非常狹窄,愛情經驗少之又少,直至在診所邂逅了來看病的方小芳(楊怡飾)。健知道芳患上化學敏感症,更為芳研發敏感藥。因要履行醫生守則,三年內不能與病人發生感情關係,故沒有在芳面前透露感情,一心等待「三年期滿」才向芳表露心跡。豈料就在期滿之前三天,芳表明是來應徵當護士,健馬上答應請了芳。

與魔相遇

正當不諳感情事的健重遇芳時,竟遇上致命車禍,與邰風(林峯飾)雙雙撞車重傷。健心跳一度停止,在醫院彌留之時,於夢中遇見「魔鬼」,健向魔鬼求情,指自己乃好人一名,尚有新藥未研發成功,成功的話會將幫助很多病人,更有一個重要的女人未向她表白,不要就此奪去其性命。
健死過翻生,馬上向芳表白示愛,卻換來芳的拒絕,教健失望不已。時風卻竟以病人身份來向健求診,健發現風無心跳,大驚,原來風已死,並化身為魔鬼,是來取健性命!

CHOK魔契約

健為保性命,遂跟風談判!風提出打賭,如果証明健真的是如他口中的是個好人,就答應放他一馬!健繼續努力去做回原本的自己,盡力去扮演好人的角色,但發現真正的「好人」其實並不易為,加上風處處出手刻意刁難,令健幾乎輸掉打賭。
健毅然再跟風談判,指自己還有母親要照顧,還有敏感藥物未研製成功,也未成功追求得到芳,所有心願未了不能就此死去。風借口要一嘗做人的滋味,留在健的身邊,更暗裡助健完成心願,全因健如願,風便會取去其命。

人物關係圖↓
點擊此處在新視窗瀏覽實際大小的圖片

點擊此處瀏覽連結※人物詳細介紹※

點擊此處瀏覽連結※精采片段影片※

※劇  照※ 
點擊此處在新視窗瀏覽實際大小的圖片

點擊此處在新視窗瀏覽實際大小的圖片

點擊此處在新視窗瀏覽實際大小的圖片

點擊此處在新視窗瀏覽實際大小的圖片

點擊此處在新視窗瀏覽實際大小的圖片

※截  圖※
點擊此處在新視窗瀏覽實際大小的圖片
※影片格式資訊※
General
Complete name : 不速之約.Men.With.No.Shadows.720P.E01.mkv
Format : Matroska
File size : 1.35 GiB
Duration : 44mn 27s
Overall bit rate : 4 359 Kbps
Encoded date : UTC 2011-09-13 05:21:59
Writing application : mkvmerge v3.3.0 ('Language') built on Mar 24 2010 14:59:24
Writing library : libebml v0.8.0 + libmatroska v0.9.0
Video #1
ID : 1
Format : AVC
Format/Info : Advanced Video Codec
Format profile : High@L3.1
Format settings, CABAC : Yes
Format settings, ReFrames : 5 frames
Muxing mode : Container profile=Unknown@3.1
Codec ID : V_MPEG4/ISO/AVC
Duration : 44mn 27s
Bit rate : 3 888 Kbps
Nominal bit rate : 3 973 Kbps
Width : 1 280 pixels
Height : 720 pixels
Display aspect ratio : 16:9
Frame rate : 25.000 fps
Resolution : 24 bits
Colorimetry : 4:2:0
Scan type : Progressive
Bits/(Pixel*Frame) : 0.169
Stream size : 1.21 GiB (89%)
Title : Move(影片軌)
Writing library : x264 core 116 r2074 2641b9e
Encoding settings : cabac=1 / ref=5 / deblock=1:-3:-3 / analyse=0x3:0x113 / me=umh / subme=7 / psy=1 / psy_rd=1.00:0.00 / mixed_ref=1 / me_range=16 / chroma_me=1 / trellis=1 / 8x8dct=1 / cqm=0 / deadzone=21,11 / fast_pskip=0 / chroma_qp_offset=-2 / threads=9 / sliced_threads=0 / nr=0 / decimate=0 / interlaced=0 / bluray_compat=0 / constrained_intra=0 / bframes=6 / b_pyramid=2 / b_adapt=1 / b_bias=0 / direct=3 / weightb=1 / open_gop=0 / weightp=2 / keyint=250 / keyint_min=25 / scenecut=40 / intra_refresh=0 / rc_lookahead=40 / rc=2pass / mbtree=1 / bitrate=3973 / ratetol=1.0 / qcomp=0.60 / qpmin=0 / qpmax=69 / qpstep=4 / cplxblur=20.0 / qblur=0.5 / vbv_maxrate=20000 / vbv_bufsize=20000 / nal_hrd=none / ip_ratio=1.40 / aq=1:1.00
Language : Chinese
Audio #2
ID : 2
Format : AC-3
Format/Info : Audio Coding 3
Codec ID : A_AC3
Duration : 44mn 27s
Bit rate mode : Constant
Bit rate : 384 Kbps
Channel(s) : 6 channels
Channel positions : Front: L C R, Surround: L R, LFE
Sampling rate : 48.0 KHz
Stream size : 122 MiB (9%)
Title : Cantonese(粵語)
Language : Chinese
Text #3
ID : 3
Format : UTF-8
Codec ID : S_TEXT/UTF8
Codec ID/Info : UTF-8 Plain Text
Title : CHT(繁體中文)
Language : Chinese
Text #4
ID : 4
Format : UTF-8
Codec ID : S_TEXT/UTF8
Codec ID/Info : UTF-8 Plain Text
Title : CHS(簡体中文)
Language : Chinese

下載教學步驟一:
進入下載畫面之後,移動到網頁右下方你會看到"普通下載"的按鈕,選擇按下"普通下載"等一下下會出現識別碼,依照顯示的識別碼輸入即可。

下載教學步驟二:
移動到網頁右上方你會看到倒數的秒數出現,等待秒數完成後按下"普通下載"即可下載。

PS:如果識別碼不清楚可以選擇更新輸入後確定等待約20秒即可下載,下載點不支援 訊雷、快車、BT..等等續傳軟體,請使用IE瀏覽器下載。

點擊此處瀏覽連結下載教學網頁圖片請點這裡
KMPlayer Ver.2.9.4.1436影音播放軟體 (內含加掛MP3插件 無所不播無所不放免安裝版)→ 點擊此處瀏覽連結下載點這裡
FileServe◎Mipony 1.2.2免費空間下載加速工具 地址→ 點擊此處瀏覽連結下載點這裡
xun6◎Mipony 1.2.2免費空間下載加速工具 地址→ 點擊此處瀏覽連結下載點這裡
-------------------------------------------------------------
2011年TVB最新熱播劇集《不速之約》【720P高清TV粵語中字】
-------------------------------------------------------------
點擊此處瀏覽連結點擊此處注冊後可以免費得到一個500GB的空間獲得高速下載通道: 
點擊此處瀏覽連結掛機網賺 20dollars2surf,全自動衝浪掛機也可賺錢 點擊此處瀏覽連結※內附完整教學圖※
點擊此處在新視窗瀏覽實際大小的圖片
HDTV-720P [MKV]
< 不速之約 第01集至20集[所有集數] 下載連結資料夾 >
點擊此處在新視窗瀏覽實際大小的圖片
點擊此處瀏覽連結其他港劇下載點這裡
點擊此處在新視窗瀏覽實際大小的圖片
點擊此處瀏覽連結點擊此處註冊後可以免費得到一個750GB的空間獲得高速下載通道:
不速之約 20全集 下載連結資料夾 
點擊此處在新視窗瀏覽實際大小的圖片Folder link:點擊此處瀏覽連結http://www.wupload.com/folder/528203
點擊此處在新視窗瀏覽實際大小的圖片2011 TVB 不速之約 Men with No Shadows 點擊此處瀏覽連結http://www.wupload.com/folder/542794

, , ,

☜♥☞阿德 發表在 痞客邦 PIXNET 留言(0) 人氣()