]2005年TVB 黎耀祥 陶大宇《開心賓館 Fantasy Hotel》【480P高清TV粵語中字】FS WU
【劇 名】:開心賓館
【英 名】:Fantasy Hotel
【監 制】:李添勝
【編 導】:陸天華
【編 審】:張華標
【編 劇】:文健輝
【統 籌】:周慕妍
【助 編】:葉嘉盈
【日 期】:2005年7月4日-7月29日
【製 作】:2004年
【播出時間】:星期一至五 9:30PM 翡翠台、9:30PM 高清翡翠台
【首播日期】:2005年7月4日
【類 型】:時裝喜劇
【製 作】:香港電視廣播有限公司 
【集 數】:20集
【接 檔】:情迷黑森林 ←→上一檔:7月1日 / 下一檔:8月1日 ←→ Yummy Yummy
【主 演】:陶大宇(飾 甘志杰)、黎耀祥(飾 韓 山)、吳美珩(飾 翁家文)、胡 楓(飾 金廣開)、湯盈盈(飾 陳翹楚)、雪 妮(飾 王小蝶)、唐文龍(飾 高 祥)
【語 言】:粵語
【字 幕】:中文
【格 式】:RMVB
【影片大小】:229 MB
【官方網站】:點擊此處瀏覽連結http://tvcity.tvb.com/drama/fantasy_hotel/frontpage/index.html 點擊此處瀏覽連結http://tvcity.tvb.com/drama/fantasy_hotel/story/
【維基百科】:點擊此處瀏覽連結http://zh.wikipedia.org/wiki/開心賓館

點擊此處在新視窗瀏覽實際大小的圖片

點擊此處在新視窗瀏覽實際大小的圖片

※劇情簡介※
甘志杰(陶大宇)與好友韓山(黎耀祥)是旅游界無人不識的導游,享有“香港第一導”的美譽,二人滿懷自信積極工作,深信只要把握時機他朝定能東山再起。兩人經歷了人生兩起兩跌,曾擁家財千萬,一場亞洲金融風暴,令他們一夜之間變得一無所有。
少奶奶翁家文(吳美珩)輾轉進入杰與山工作的旅行社工作,跟隨杰學習,並與他由冤家發展為患難與共的好友。
一次機遇,杰、山救了“王金賓館”的老板金廣開(胡楓),開竟贈送賓館股份予二人作報酬,並明言不得將賓館變賣。傑對著已無大作為的賓館,惟有咬緊牙關,用心經營。然而,無論他如何努力,賓館生意依然一落千丈,眼見賓館面臨倒閉的厄運,正百籌莫展時,支援的人八方而至,指定入住“王金賓館”,令賓館突然成為全城焦點 ……

※故事大綱※
甘志杰從事導遊工作,向有香港第一咪的美譽,他之所以表演拼搏,皆因他經歷了人生兩起兩跌,曾擁家財千萬,一場金融風暴,一夜之間變得一無所有,不過他仍充滿自信,只要把握時機,深信他朝有日必定能東山再起。
志杰逐與沙煲兄弟韓山加入曾為自己下屬的John成立的旅行社,投入導遊行列,而志杰與韓山亦享有「碧水韓山奪命金」的封號。
隨著金融風暴過去,內地放寬來港旅客出入境限制,自由行成為香港旅遊業界一個新希望,志杰正雄心萬丈,蓄勢待發時,突然闖進一個本來並不屬於旅遊界的女子──翁家文,她不單打亂志杰的奮發計劃,更踏進志杰枯竭的心靈,令其人生起變。
家文本為幸福少婦,生活無憂,只為興趣而加入旅行社當生態導遊,陰差陽錯結識了志杰、韓山二人,對二人的推銷兜售貨品手法嗤之以鼻,對二人更加是毫無好感,惟卻似是與志杰特別有緣,多番相遇,亦多番相害,志杰視家文為災星,處處迴避。
家文亦不屑與志杰為同事,一心當其生態導遊,避開當國內團導遊的志杰,但意外發現丈夫歐雅歷有地下情,夫妻關係頓時破裂,令家文心煩意亂。家文為了擺脫雅歷而正式成為旅行社導遊,偏偏志杰成為家文的拍檔,志杰對家文深感同情,最終反替家文解脫困局,重過新生,至此,家文與志杰關係轉好。
機遇來臨,「王金賓館」意外失火,志杰與沙煲兄弟韓山救了患有心臟病的賓館老闆金廣開,廣開賞識志杰為人,遂贈予賓館股份以答謝二人,二人當起賓館老闆來。
一次機緣巧恰下,內地薄有名氣的女星冬妮訪港,聘請志杰當導遊。短短數天行程,志杰不知不覺間給冬妮敢愛敢恨的性格所吸引,而冬妮亦欣賞志杰那股不屈傲氣,二人情愫漸生,激發一段浪漫深情。
志杰發現原來一直在身邊幫忙的家文,早已暗戀自己多時,志杰面對家文,不知應否接受其愛意,猶疑不定。
同一時間,韓山漸漸不甘屈服其下,兩兄弟的感情備受考驗。人生至此,志杰開始質疑親情、友情是否就這樣脆弱?
幸好,志杰處於愛情與友情在膠著狀態,正困惑不已時,老人家廣開的一段黃昏之戀卻給他一個莫大啟示。廣開勸導志杰要珍惜眼前人,機會一過,就追悔莫及。志杰最終明白自己情歸何處,正打算向家文表白時,一名美籍華人William對家文展開熱烈追求,家文夾於志杰與William之間,茫然不知如何取捨。
未幾,賓館傳出有退伍軍人症,生意一落千丈,眼見賓館面臨倒閉的厄運,正百籌莫展時,從前得到幫助的人紛紛前來聲援,指定入住「王金賓館」,令賓館突然成為全城焦點 … …

人物關係圖↓
點擊此處在新視窗瀏覽實際大小的圖片

點擊此處瀏覽連結※人物詳細介紹※

點擊此處瀏覽連結※精采片段影片※

※劇  照※ 
點擊此處在新視窗瀏覽實際大小的圖片

點擊此處在新視窗瀏覽實際大小的圖片

點擊此處在新視窗瀏覽實際大小的圖片

點擊此處在新視窗瀏覽實際大小的圖片

點擊此處在新視窗瀏覽實際大小的圖片

點擊此處在新視窗瀏覽實際大小的圖片

※截  圖※
點擊此處在新視窗瀏覽實際大小的圖片
※影片格式資訊※
General
Complete name : 2005.TVB.開心賓館.Fantasy.Hotel.EP01.rmvb
Format : RealMedia
File size : 229 MiB
Duration : 43mn 43s
Overall bit rate : 726 Kbps
Copyright : (c)2004 RealMedia
Video #1
ID : 1
Format : RealVideo 4
Codec ID : RV40
Codec ID/Info : Based on AVC (H.264), Real Player 9
Duration : 43mn 43s
Bit rate : 662 Kbps
Width : 512 pixels
Height : 384 pixels
Display aspect ratio : 4:3
Frame rate : 25.000 fps
Resolution : 12 bits
Bits/(Pixel*Frame) : 0.135
Stream size : 207 MiB (90%)
Audio #0
ID : 0
Format : AAC
Format/Info : Advanced Audio Codec
Codec ID : raac
Codec ID/Info : Real Player 9
Duration : 43mn 43s
Bit rate : 64.0 Kbps
Channel(s) : 2 channels
Sampling rate : 32.0 KHz
Resolution : 16 bits
Stream size : 20.0 MiB (9%)

下載教學步驟一:
進入下載畫面之後,移動到網頁右下方你會看到"普通下載"的按鈕,選擇按下"普通下載"等一下下會出現識別碼,依照顯示的識別碼輸入即可。

下載教學步驟二:
移動到網頁右上方你會看到倒數的秒數出現,等待秒數完成後按下"普通下載"即可下載。

PS:如果識別碼不清楚可以選擇更新輸入後確定等待約20秒即可下載,下載點不支援 訊雷、快車、BT..等等續傳軟體,請使用IE瀏覽器下載。

點擊此處瀏覽連結下載教學網頁圖片請點這裡
KMPlayer Ver.2.9.4.1436影音播放軟體 (內含加掛MP3插件 無所不播無所不放免安裝版)→ 點擊此處瀏覽連結下載點這裡
FileServe◎Mipony 1.2.2免費空間下載加速工具 地址→ 點擊此處瀏覽連結下載點這裡
xun6◎Mipony 1.2.2免費空間下載加速工具 地址→ 點擊此處瀏覽連結下載點這裡
-------------------------------------------------------------
2005年TVB最新熱播劇集 黎耀祥 陶大宇《開心賓館 Fantasy Hotel》【480P高清TV粵語中字】
-------------------------------------------------------------
點擊此處瀏覽連結點擊此處注冊後可以免費得到一個500GB的空間獲得高速下載通道: 
點擊此處瀏覽連結掛機網賺 20dollars2surf,全自動衝浪掛機也可賺錢 點擊此處瀏覽連結※內附完整教學圖※
點擊此處在新視窗瀏覽實際大小的圖片
HDTV-720P [MKV]
< 開心賓館 Fantasy Hotel 第01集至20集[所有集數] 下載連結資料夾 >
點擊此處在新視窗瀏覽實際大小的圖片
點擊此處瀏覽連結其他港劇下載點這裡
點擊此處在新視窗瀏覽實際大小的圖片
點擊此處瀏覽連結點擊此處註冊後可以免費得到一個750GB的空間獲得高速下載通道:
開心賓館 Fantasy Hotel 20全集 下載連結資料夾 
點擊此處在新視窗瀏覽實際大小的圖片Folder link:點擊此處瀏覽連結http://www.wupload.com/folder/292ac90e9fb8793d2
點擊此處在新視窗瀏覽實際大小的圖片2011 TVB 開心賓館 Fantasy Hotel 點擊此處瀏覽連結http://www.wupload.com/folder/546763

, , , , ,

☜♥☞阿德 發表在 痞客邦 PIXNET 留言(0) 人氣()