2011最新美國票房科幻動作大片《猩球崛起 Rise of The Planet of The Apes》FS WU
【劇 名】:猿族崛起/猩球崛起/猿人爭霸戰:猩凶革命
【英 名】:Rise of The Planet of The Apes
【年 代】:2011
【地 區】:美國
【類 型】:驚悚/動作/劇情/科幻
【語 言】:英語
【字 幕】:外掛簡體中文/繁體中文
【尺 寸】:720 x 304
【片 長】:01:37:46
【格 式】:MKV-X264 Audio:AC3
【格 式】:MKV
【容 量】:1.4 GB
【上 映】:2011年8月4日
【導 演】:魯伯特·瓦耶特 Rupert Wyatt
【主 演】:詹姆斯·弗蘭科 James Franco ….Will Rodman
      芙蕾達·平托 Freida Pinto ….Caroline
      安迪·瑟金斯 Andy Serkis ….Caesar
      湯姆·費爾頓 Tom Felton
      布萊恩·考克斯 Brian Cox
      約翰·利特高 John Lithgow
      Tyler Labine ….Franklin
      大衛·休萊特 David Hewlett ….Hunsiker
      桑婭·本妮特 Sonja Bennett ….Woman on Street 
【IMDB評分】:7/10 (1,143 votes)
【IMDB鏈接】:點擊此處瀏覽連結http://www.imdb.com/title/tt1318514/

點擊此處在新視窗瀏覽實際大小的圖片

※劇情簡介※
本片是《決戰猩球》的前傳,影片講述智力大大發展的猿人與人類之間爆發戰爭。詹姆斯·弗蘭科飾演一位年輕且不屈不撓的科學家,他引發了猩猩的智慧,在之後人類與猩猩的戰鬥中也起主要的作用。印度小姑娘芙蕾達·平托飾演靈長類學家、她一直在幫助弗蘭科。布萊恩·考克斯則是科研所的管理者,他對動物毫無同情心。安迪·瑟金斯通過動作捕捉技術扮演猩猩反叛軍領袖凱撒。
《猩球崛起》的故事深切的探討人類文明與科技進化之間的衝突,故事的背景設立在舊金山,美麗的動物學家凱洛琳(芙烈妲 品朵 飾)遇上了基因科學家威爾羅德曼(詹姆斯 法蘭柯 飾)並相戀。 威爾為了治療父親的阿茲海默症,研發新藥並祕密地對自己所飼養的人猿凱撒進行活體基因實驗。
凱洛琳對凱撒寵愛有加 ,但對此實驗毫不知情,未料,威爾的基因實驗卻意外地增長了人猿凱撒的智慧,凱撒不但可以理解複雜的人類指示並開始有了想法... 人類因畏懼與不信任而強迫凱撒與威爾分離,並將牠送進了看護所。 在那裏牠受到了無情的對待,繼而開始憎恨人類,聰明的凱撒逃離了看護所,連帶救走了一批人猿,牠們誓言報復! 
一場不得不與人類對立的戰爭即將開始,浩劫的最後的勝負,將決定全世界生存的未來...!

※截  圖※
點擊此處在新視窗瀏覽實際大小的圖片
General
Complete name : 猩球崛起.Rise.of.the.Planet.of.the.Apes.2011.TS.XVID.AC3.avi
Format : AVI
Format/Info : Audio Video Interleave
File size : 1.40 GiB
Duration : 1h 37mn
Overall bit rate : 2 054 Kbps
Writing application : Nandub v1.0rc2
Writing library : Nandub build 1853/release
Video #0
ID : 0
Format : MPEG-4 Visual
Format profile : AdvancedSimple@L5
Format settings, BVOP : Yes
Format settings, QPel : Yes
Format settings, GMC : No warppoints
Format settings, Matrix : Default (H.263)
Muxing mode : Packed bitstream
Codec ID : XVID
Codec ID/Hint : XviD
Duration : 1h 37mn
Bit rate : 1 788 Kbps
Width : 720 pixels
Height : 304 pixels
Display aspect ratio : 2.35:1
Frame rate : 25.000 fps
Resolution : 24 bits
Colorimetry : 4:2:0
Scan type : Progressive
Bits/(Pixel*Frame) : 0.327
Stream size : 1.22 GiB (87%)
Writing library : XviD 1.2.1 (UTC 2008-12-04)
Audio #1
ID : 1
Format : AC-3
Format/Info : Audio Coding 3
Codec ID : 2000
Duration : 1h 37mn
Bit rate mode : Constant
Bit rate : 256 Kbps
Channel(s) : 2 channels
Channel positions : L R
Sampling rate : 48.0 KHz
Stream size : 179 MiB (12%)
Alignment : Split accross interleaves
Interleave, duration : 40 ms (1.00 video frame)
Interleave, preload duration : 500 ms
下載教學步驟一:
進入下載畫面之後,移動到網頁右下方你會看到"普通下載"的按鈕,選擇按下"普通下載"等一下下會出現識別碼,依照顯示的識別碼輸入即可。

下載教學步驟二:
移動到網頁右上方你會看到倒數的秒數出現,等待秒數完成後按下"普通下載"即可下載。

PS:如果識別碼不清楚可以選擇更新輸入後確定等待約20秒即可下載,下載點不支援 訊雷、快車、BT..等等續傳軟體,請使用IE瀏覽器下載。

點擊此處瀏覽連結下載教學網頁圖片請點這裡
KMPlayer Ver.2.9.4.1436影音播放軟體 (內含加掛MP3插件 無所不播無所不放免安裝版)→ 點擊此處瀏覽連結下載點這裡
FileServe◎Mipony 1.2.2免費空間下載加速工具 地址→ 點擊此處瀏覽連結下載點這裡
xun6◎Mipony 1.2.2免費空間下載加速工具 地址→ 點擊此處瀏覽連結下載點這裡
------------------------------------------------------------------------------------------
2011最新美國票房科幻動作大片《猩球崛起 Rise of The Planet of The Apes》高清BD-MKV英語中字
------------------------------------------------------------------------------------------ 
點擊此處瀏覽連結掛機網賺 20dollars2surf,全自動衝浪掛機也可賺錢 點擊此處瀏覽連結※內附完整教學圖※
點擊此處瀏覽連結分割檔可以使用HJSplit 2.3工具合併
點擊此處在新視窗瀏覽實際大小的圖片HJSplit 2.3 檔案分割、合併、比對 繁體中文免安裝版 下載地址→
點擊此處瀏覽連結下載點這裡
點擊此處在新視窗瀏覽實際大小的圖片
BD-720P [MKV]《猩球崛起 Rise of The Planet of The Apes》下載連結資料夾:
點擊此處在新視窗瀏覽實際大小的圖片
點擊此處瀏覽連結點擊此處注冊後可以免費得到一個500GB的空間獲得高速下載通道: 
點擊此處在新視窗瀏覽實際大小的圖片點擊此處瀏覽連結其它香港三級片下載點這裡
點擊此處在新視窗瀏覽實際大小的圖片
點擊此處瀏覽連結點擊此處註冊後可以免費得到一個750GB的空間獲得高速下載通道:
點擊此處在新視窗瀏覽實際大小的圖片點擊此處瀏覽連結下載點這裡
點擊此處在新視窗瀏覽實際大小的圖片Folder link: 點擊此處瀏覽連結http://www.wupload.com/folder/e8f6140b2a6243999
點擊此處在新視窗瀏覽實際大小的圖片點擊此處瀏覽連結http://www.wupload.com/folder/546007 猩球崛起.Rise.of.the.Planet.of.the.Apes.2011.XVID.AC3.avi
猩球崛起.Rise.of.the.Planet.of.the.Apes.2011.XVID.AC3.avi.001 002 003 004 
點擊此處瀏覽連結分割檔可以使用HJSplit 2.3工具合併
點擊此處在新視窗瀏覽實際大小的圖片HJSplit 2.3 檔案分割、合併、比對 繁體中文免安裝版 下載地址→點擊此處瀏覽連結下載點這裡
點擊此處在新視窗瀏覽實際大小的圖片點擊此處瀏覽連結猩球崛起.Rise.of.the.Planet.of.the.Apes.2011.XVID.AC3.chi.srt 簡體中文
點擊此處在新視窗瀏覽實際大小的圖片點擊此處瀏覽連結猩球崛起.Rise.of.the.Planet.of.the.Apes.2011.XVID.AC3.cht.srt 繁體中文

, , , , ,

☜♥☞阿德 發表在 痞客邦 PIXNET 留言(1) 人氣()


留言列表 (1)

發表留言
  • 路人
  • 字幕黨好像不能載?
    能更新嗎 感恩^^