2009 謝天華 黃秋生 黎耀祥 吳鎮宇 犯罪動作片《Laughing Gor之變節》高清BD-MKV國粵語中字【FS WU】
【劇 名】:Laughing Gor之變節/無間風雲/Laughing哥前傳 
【英 名】:Turning Point 
【年 代】:2009
【地 區】:中國香港
【類 型】:動作 / 劇情 / 犯罪
【語 言】:粵語/國語
【字 幕】:外掛 簡體中文/繁體中文/英文
【尺 寸】:1280 x 720
【片 長】:01:38:46
【格 式】:MKV-X264 Audio:AC3-5.1CH
【格 式】:MKV
【容 量】:425 MB
【上 映】:2004年
【發 行】:華娛有限公司/銀都機構有限公司
【導 演】:邱禮濤 Herman Yau 
【監 製】:梁家樹
【主 演】:謝天華 Michael Tse ....梁笑棠 
      黃秋生 Anthony Wong ....黎天一 
      吳鎮宇 Francis Ng 
      黃日華 Felix Wong 
      陳法拉 Fala Chen 
      黎耀祥 Yiu-Cheung Lai 
      葉翠翠 Tracy Ip 
      黃德斌 Kenny Wong 
      李家鼎 Ka Ting Lee 
      李思捷 Sze-Chit Lee 
      袁偉豪 Wai-Ho Yung 
      呂慧儀 Koni Lui 
      高鈞賢 Mattew Ko 
      蕭正楠 Edwin Siu 
      梁烈唯 Oscar Leung 
      周美欣 Lorretta Chow 
      元彪 Yuen Biao 
      曾志偉 Eric Tsang 
      邵美琪 Maggie Siu 
      陳鍵鋒 Kin Fung Chan 
【IMDB評分】:6.4/10 (32 votes) 
【IMDB鏈接】:點擊此處瀏覽連結http://www.imdb.com/title/tt1483421 

點擊此處在新視窗瀏覽實際大小的圖片

點擊此處在新視窗瀏覽實際大小的圖片

※劇情簡介※
2009年暑假港產片票房之冠,影帝和TVB群星拱照,《Laughing Gor之變節》在大銀幕上延續Laughing傳奇!堪稱TVB歷來最受歡迎的劇集角色的「Laughing哥」(梁笑棠)由謝天華擔當演出,與三位影帝黃秋生、吳鎮宇、曾志偉在黑白兩道之間飆戲,還有黃日華、黎耀祥、元彪、陳法拉等幕前的破天荒的組合,影片由籌備開拍至上*期間,成為城中熱門話題,各方角色廣受關注,令《Laughing Gor之變節》成為2009年夏天矚目之作,票房突破1,500萬。 
由邱禮濤執導,邵氏電影《Laughing Gor之變節》為2009年電視劇《學警狙擊》英勇殉職的臥底 Laughing 哥的前傳。在未加入警隊之前,Laughing 已與社團老大一哥(黃秋生飾)手足情深;後來臨危受命,為反黑組警司(元彪飾)入黑道當臥底。Laughing 一方面掌握警方行動向一哥報信,另一方協助他對付頭號敵人—社團中的同門座頭(吳鎮宇飾),卻令他遇上生命中最愛的女人—座頭的妹妹 Karen(陳法拉飾)。當生命懸於正邪之間,「雙重臥底」身份危機的 Laughing 面對法治、恩義、感情,究竟如何決擇﹖ 人在江湖,身不由己,謝天華演活亦忠亦邪的 Laughing,是他自九十年代《古惑仔》電影系列的「大天二」後再藉黑幫角色再闖影壇。片中影星陣容星光熠熠,黑道勢力的曾志偉、黃德斌,與警方的黃日華、黎耀祥、元彪等正邪大鬥法,還有首次擔當電影女主角的陳法拉、敖嘉年、葉翠翠、呂慧儀、周美欣及陳爽等演出,至於《學警狙擊》劇中兩位男主角中「鍾立文」吳卓羲和「李柏翹」陳鍵鋒也客串亮相。 

  Laughing本是警方的臥底,但因為一宗販毒桉件,被警司潘SIR追捕。 
  其實Laughing加入警隊之前,本就是個黑幫成員,一直跟隨其老大一哥在道上打拼。一哥對Laughing照顧有加,Laughing視一哥有如親兄。一哥為了保護自己的地盤及非法生意,竟要求Laughing投考警隊,讓他可以掌握警方行動。 
  Laughing在警校成績優異,可惜天意弄人,他根本沒機會待在警隊,因為反黑警司冼SIR被Laughing的黑道氣味所吸引,竟指派他做臥底探員。 
  就這樣,Laughing竟成了「雙重臥底」,一哥也樂得Laughing被送進社團去對付自己的同門座頭。在這已經複雜的狀況下,一件事情令Laughing的處境更複雜,他竟愛上了座頭的妹妹Karen。 
  面對法治、恩義、感情的抉擇,Laughing將如何自處?無論選擇哪一邊,都是一場變節,Laughing最後將投向哪一方? 

※幕後製作※
  由於謝天華在無線電視劇《學警狙擊》所飾演的梁笑棠(Laughing哥)大受歡迎,電視廣播有限公司為了觀眾要求,電視廣播有限公司電視廣播業務總經理陳志雲於2009年4月1日愚人節在志雲飯局訪問謝天華的錄影探班上宣佈開拍此電影,由邱禮濤執導,在5月火速開拍,於8月8日首映,8月13日上畫。 
  邵氏兄弟(香港)有限公司與無線電視出品之首部電影《LAUGHING GOR之變節》將於八月十三日盛大獻映。電影以熱爆全城Laughing Gor人物作藍圖搬上大銀幕,結集影視界幕前幕後強勁班底全力打造。電影由梁家樹監製、邱禮濤執導、葉天成、潘漫紅及黃洋達編劇,兩大影帝黃秋生及吳鎮宇與謝天華、黃日華及陳法拉領銜主演,加上曾志偉及元彪特別演出。 
  《LAUGHING GOR之變節》以黑白兩道之角力為題材,Laughing(謝天華)有著雙重臥底的身份,同時受命於黑幫老大(黃秋生)與反黑警司(元彪),時刻面臨生死抉擇。天意弄人,Laughing更愛上另一黑幫老大(吳鎮宇)的胞妹(陳法拉),令他陷入法治、恩義、感情的關係錯綜複雜的局面。 
  電影中兩大黑幫老大一哥及座頭分別由兩大影帝黃秋生及吳鎮宇飾演,演技毋庸置疑,配合兩大影帝以極具個人特色的造型,令他們一字一句更具懾人的力量。電影更邀得錢嘉樂擔任動作指導,連場追趕角力場面更具震撼力。集眾演員精湛之演技及緊湊之劇情於一身,《LAUGHING GOR之變節》「戲」勢凌厲,勢必掀起另一Laughing熱潮!《LAUGHING GOR之變節》 

※截  圖※
點擊此處在新視窗瀏覽實際大小的圖片
General
Complete name : Laughing Gor之變節.Turning.Point.2009.BluRay.720p.AC3.x264.mkv
Format : Matroska
File size : 4.36 GiB
Duration : 1h 28mn
Overall bit rate : 7 046 Kbps
Encoded date : UTC 2009-10-10 00:27:02
Writing application : mkvmerge v2.6.0 ('Kelly watch the Stars') built on Mar 24 2009 15:23:17
Writing library : libebml v0.7.7 + libmatroska v0.8.1
Video #1
ID : 1
Format : AVC
Format/Info : Advanced Video Codec
Format profile : High@L4.1
Format settings, CABAC : Yes
Format settings, ReFrames : 4 frames
Muxing mode : Container profile=Unknown@4.1
Codec ID : V_MPEG4/ISO/AVC
Duration : 1h 28mn
Bit rate : 5 172 Kbps
Nominal bit rate : 5 308 Kbps
Width : 1 280 pixels
Height : 694 pixels
Display aspect ratio : 16:9
Frame rate : 24.000 fps
Resolution : 24 bits
Colorimetry : 4:2:0
Scan type : Progressive
Bits/(Pixel*Frame) : 0.243
Stream size : 3.20 GiB (73%)
Title : Move(影片軌)
Writing library : x264 core 76 r1271 496d79d
Encoding settings : cabac=1 / ref=4 / deblock=1:-3:-3 / analyse=0x3:0x113 / me=umh / subme=8 / psy=1 / psy_rd=1.3:0.2 / mixed_ref=1 / me_range=24 / chroma_me=1 / trellis=1 / 8x8dct=1 / cqm=2 / deadzone=21,11 / chroma_qp_offset=-3 / threads=6 / nr=0 / decimate=1 / mbaff=0 / bframes=3 / b_pyramid=0 / b_adapt=1 / b_bias=0 / direct=3 / wpredb=1 / keyint=250 / keyint_min=25 / scenecut=40 / rc_lookahead=40 / rc=2pass / mbtree=1 / bitrate=5308 / ratetol=1.0 / qcomp=0.60 / qpmin=10 / qpmax=51 / qpstep=4 / cplxblur=20.0 / qblur=0.5 / ip_ratio=1.40 / aq=2:0.80
Language : Chinese
Audio #2
ID : 2
Format : DTS
Format/Info : Digital Theater Systems
Codec ID : A_DTS
Duration : 1h 28mn
Bit rate mode : Constant
Bit rate : 1 510 Kbps
Channel(s) : 6 channels
Channel positions : Front: L C R, Surround: L R, LFE
Sampling rate : 48.0 KHz
Resolution : 24 bits
Stream size : 956 MiB (21%)
Title : Cantonese(粵語) DTS 1536k
Language : Chinese
Audio #3
ID : 3
Format : AC-3
Format/Info : Audio Coding 3
Codec ID : A_AC3
Duration : 1h 28mn
Bit rate mode : Constant
Bit rate : 224 Kbps
Channel(s) : 2 channels
Channel positions : L R
Sampling rate : 48.0 KHz
Stream size : 142 MiB (3%)
Title : Mandarin(國語) AC3 2.0 224K
Language : Chinese

下載教學步驟一:
進入下載畫面之後,移動到網頁右下方你會看到"普通下載"的按鈕,選擇按下"普通下載"等一下下會出現識別碼,依照顯示的識別碼輸入即可。

下載教學步驟二:
移動到網頁右上方你會看到倒數的秒數出現,等待秒數完成後按下"普通下載"即可下載。

PS:如果識別碼不清楚可以選擇更新輸入後確定等待約20秒即可下載,下載點不支援 訊雷、快車、BT..等等續傳軟體,請使用IE瀏覽器下載。

點擊此處瀏覽連結下載教學網頁圖片請點這裡
KMPlayer Ver.2.9.4.1436影音播放軟體 (內含加掛MP3插件 無所不播無所不放~綠色版免安裝版)→ 點擊此處瀏覽連結下載點這裡
FileServe◎Mipony 1.2.2免費空間下載加速工具 地址→ 點擊此處瀏覽連結下載點這裡
xun6◎Mipony 1.2.2免費空間下載加速工具 地址→ 點擊此處瀏覽連結下載點這裡
-----------------------------------------------------------------
2009 謝天華 黃秋生 黎耀祥 吳鎮宇 犯罪動作片《Laughing Gor之變節》高清BD-MKV國粵語中字
----------------------------------------------------------------- 
點擊此處瀏覽連結掛機網賺 20dollars2surf,全自動衝浪掛機也可賺錢 點擊此處瀏覽連結※內附完整教學圖※
點擊此處瀏覽連結分割檔可以使用HJSplit 2.3工具合併
點擊此處在新視窗瀏覽實際大小的圖片HJSplit 2.3 檔案分割、合併、比對 繁體中文免安裝版 下載地址→
點擊此處瀏覽連結下載點這裡
點擊此處在新視窗瀏覽實際大小的圖片
BD-720P [MKV]《Laughing Gor之變節 Turning Point》下載連結資料夾:
點擊此處在新視窗瀏覽實際大小的圖片
點擊此處瀏覽連結點擊此處註冊後可以免費得到一個750GB的空間獲得高速下載通道:
點擊此處瀏覽連結下載點這裡
點擊此處在新視窗瀏覽實際大小的圖片Folder link: 點擊此處瀏覽連結http://www.wupload.com/folder/e8f6140b2a6243999
點擊此處在新視窗瀏覽實際大小的圖片點擊此處瀏覽連結http://www.wupload.com/folder/cb148c62ac6c6dde5
點擊此處瀏覽連結分割檔可以使用HJSplit 2.3工具合併
點擊此處在新視窗瀏覽實際大小的圖片點擊此處瀏覽連結Laughing Gor之變節.Turning.Point.2009.BluRay.720p.AC3.x264.cht.srt
點擊此處在新視窗瀏覽實際大小的圖片點擊此處瀏覽連結Laughing Gor之變節.Turning.Point.2009.BluRay.720p.AC3.x264.chi.srt

, , , , ,

☜♥☞阿德 發表在 痞客邦 PIXNET 留言(0) 人氣()