2008 鄭秀文 陳奕迅 喜劇劇情片《大搜查之女 Lady Cop and Papa Crook》高清RD-MKV國粵雙語外掛中英字幕【FS WU】
【劇 名】:大搜查之女
【英 名】:Lady Cop and Papa Crook
【年 代】:2008
【地 區】:中國香港
【類 型】:喜劇 / 犯罪 / 驚悚 / 劇情
【語 言】:粵語/國語
【字 幕】:簡中/繁中/英文
【尺 寸】:1280 x 720
【片 長】:01:38:12
【格 式】:MKV-X264 Audio:AC3-5.1ch
【格 式】:MKV
【容 量】:4.38 GB (12個分割檔)
【上 映】:2008年
【發 行】:寰亞綜藝集團
【導 演】:麥兆輝、莊文強
【監 製】:莊 澄
【主 演】:鄭秀文、陳奕迅、任賢齊、張國立、董勇、杜汶澤

點擊此處在新視窗瀏覽實際大小的圖片

※劇情簡介Product Information※

33歲還未結婚的香港女警司徒慕蓮一直為自己的婚事發愁。男友十年前的承諾,現在成了她與同事間的笑談。一日,走私集團的頭領霍青松的兒子被綁架,司徒慕蓮奉命處理這宗案件。但霍青松一家為避免因走私之事被警方控告,處處表現出不合作的態度,而此時司徒慕蓮發現自己有了身孕。黑白兩道在一間大屋下貌和神離,霍家上下各自心懷暗計,同時,大陸警方也傳來了聯合破案的消息。作為「剩女」的司徒慕蓮、作為警察的司徒慕蓮,她到底能否解決眼前面對的一切?
 
※截  圖※
點擊此處在新視窗瀏覽實際大小的圖片
General
Complete name : 大搜查之女.Lady.Cop.And.Papa.Crook.DirCut.2009.Bluray.720p.x264.2Audio.AC3.mkv
Format : Matroska
File size : 4.38 GiB
Duration : 1h 38mn
Overall bit rate : 6 381 Kbps
Encoded date : UTC 2011-08-31 13:33:05
Writing application : mkvmerge v4.7.0 ('Just Like You Imagined') built on Apr 21 2011 01:13:14
Writing library : libebml v1.2.0 + libmatroska v1.1.0
Video #1
ID : 1
Format : AVC
Format/Info : Advanced Video Codec
Format profile : High@L4.0
Format settings, CABAC : Yes
Format settings, ReFrames : 8 frames
Muxing mode : Container profile=Unknown@4.0
Codec ID : V_MPEG4/ISO/AVC
Duration : 1h 38mn
Bit rate : 4 974 Kbps
Nominal bit rate : 5 093 Kbps
Width : 1 280 pixels
Height : 720 pixels
Display aspect ratio : 16:9
Frame rate : 24.000 fps
Resolution : 24 bits
Colorimetry : 4:2:0
Scan type : Progressive
Bits/(Pixel*Frame) : 0.225
Stream size : 3.41 GiB (78%)
Title : Move(影片軌)
Writing library : x264 core 115 r1995 c1e60b9
Encoding settings : cabac=1 / ref=8 / deblock=1:-3:-3 / analyse=0x3:0x113 / me=umh / subme=10 / psy=1 / psy_rd=1.00:0.15 / mixed_ref=1 / me_range=32 / chroma_me=1 / trellis=2 / 8x8dct=1 / cqm=0 / deadzone=21,11 / fast_pskip=0 / chroma_qp_offset=-3 / threads=9 / sliced_threads=0 / nr=0 / decimate=1 / interlaced=0 / bluray_compat=0 / constrained_intra=0 / bframes=8 / b_pyramid=2 / b_adapt=2 / b_bias=0 / direct=3 / weightb=1 / open_gop=0 / weightp=2 / keyint=250 / keyint_min=24 / scenecut=40 / intra_refresh=0 / rc_lookahead=50 / rc=2pass / mbtree=1 / bitrate=5093 / ratetol=1.0 / qcomp=0.60 / qpmin=0 / qpmax=69 / qpstep=4 / cplxblur=20.0 / qblur=0.5 / ip_ratio=1.40 / aq=1:1.00
Language : Chinese
Audio #2
ID : 2
Format : AC-3
Format/Info : Audio Coding 3
Codec ID : A_AC3
Duration : 1h 38mn
Bit rate mode : Constant
Bit rate : 640 Kbps
Channel(s) : 6 channels
Channel positions : Front: L C R, Surround: L R, LFE
Sampling rate : 48.0 KHz
Stream size : 450 MiB (10%)
Title : Cantonese(粵語)
Language : Chinese
Audio #3
ID : 3
Format : AC-3
Format/Info : Audio Coding 3
Codec ID : A_AC3
Duration : 1h 38mn
Bit rate mode : Constant
Bit rate : 640 Kbps
Channel(s) : 6 channels
Channel positions : Front: L C R, Surround: L R, LFE
Sampling rate : 48.0 KHz
Stream size : 450 MiB (10%)
Title : Mandarin(國語)
Language : Chinese
Text #4
ID : 4
Format : VobSub
Codec ID : S_VOBSUB
Codec ID/Info : The same subtitle format used on DVDs
Title : ENG(英文字幕)
Language : English

下載教學步驟一:
進入下載畫面之後,移動到網頁右下方你會看到"普通下載"的按鈕,選擇按下"普通下載"等一下下會出現識別碼,依照顯示的識別碼輸入即可。

下載教學步驟二:
移動到網頁右上方你會看到倒數的秒數出現,等待秒數完成後按下"普通下載"即可下載。

PS:如果識別碼不清楚可以選擇更新輸入後確定等待約20秒即可下載,下載點不支援 訊雷、快車、BT..等等續傳軟體,請使用IE瀏覽器下載。

點擊此處瀏覽連結下載教學網頁圖片請點這裡
KMPlayer Ver.2.9.4.1436影音播放軟體 (內含加掛MP3插件 無所不播無所不放~綠色版免安裝版)→ 點擊此處瀏覽連結下載點這裡
FileServe◎Mipony 1.2.2免費空間下載加速工具 地址→ 點擊此處瀏覽連結下載點這裡
xun6◎Mipony 1.2.2免費空間下載加速工具 地址→ 點擊此處瀏覽連結下載點這裡
-----------------------------------------------------------------
2008 鄭秀文 陳奕迅 喜劇劇情片《大搜查之女 Lady Cop and Papa Crook》高清RD-MKV國粵雙語外掛中英字幕
----------------------------------------------------------------- 
點擊此處瀏覽連結掛機網賺 20dollars2surf,全自動衝浪掛機也可賺錢 點擊此處瀏覽連結※內附完整教學圖※
點擊此處瀏覽連結分割檔可以使用HJSplit 2.3工具合併
點擊此處在新視窗瀏覽實際大小的圖片HJSplit 2.3 檔案分割、合併、比對 繁體中文免安裝版 下載地址→
點擊此處瀏覽連結下載點這裡
點擊此處在新視窗瀏覽實際大小的圖片
BD-720P [MKV]《大搜查之女 Lady Cop and Papa Crook》下載連結資料夾:
點擊此處在新視窗瀏覽實際大小的圖片
點擊此處瀏覽連結點擊此處註冊後可以免費得到一個750GB的空間獲得高速下載通道:
點擊此處瀏覽連結下載點這裡
點擊此處在新視窗瀏覽實際大小的圖片Folder link: 點擊此處瀏覽連結http://www.wupload.com/folder/e8f6140b2a6243999
點擊此處在新視窗瀏覽實際大小的圖片點擊此處瀏覽連結http://www.wupload.com/folder/532492
點擊此處瀏覽連結分割檔可以使用HJSplit 2.3工具合併
點擊此處在新視窗瀏覽實際大小的圖片點擊此處瀏覽連結Lady.Cop.And.Papa.Crook.DirCut.2009.Bluray.720p.x264.2Audio.AC3.cht.srt
 大搜查之女.Lady.Cop.And.Papa.Crook 繁體中文字幕

點擊此處在新視窗瀏覽實際大小的圖片點擊此處瀏覽連結Lady.Cop.And.Papa.Crook.DirCut.2009.Bluray.720p.x264.2Audio.AC3.chi.srt 
大搜查之女.Lady.Cop.And.Papa.Crook 簡體中文字幕

, , , , ,

☜♥☞阿德 發表在 痞客邦 PIXNET 留言(0) 人氣()