2004 古天樂 郭富城 應采兒 動作劇情片《柔道龍虎榜 Throw Down》高清RD-MKV國粵雙語外掛中英字幕【FS WU】
【劇 名】:柔道龍虎榜
【英 名】:Throw Down
【年 代】:2004
【地 區】:中國香港
【類 型】:動作 / 劇情
【語 言】:粵語/國語
【字 幕】:簡中/繁中/英文
【尺 寸】:1280 x 528
【片 長】:01:34:57
【格 式】:MKV-X264 Audio:AC3-5.1ch
【格 式】:MKV
【容 量】:4.37 GB (12個分割檔)
【上 映】:2004年
【發 行】:銀河映像(香港)有限公司/銀都機構有限公司
【導 演】:杜琪峰 Johnnie To 
【監 製】:杜琪峰、林炳坤
【主 演】:古天樂、郭富城、應采兒、梁家輝、張兆輝、蔡一智、盧海鵬

點擊此處在新視窗瀏覽實際大小的圖片

※劇情簡介Product Information※
號稱“柔道小金剛”的柔道高手司徒寶(古天樂飾演)多年前突然放棄柔道事業,在歌廳做樂隊領班,並淪落到嗜賭酗酒,而且債務纏身。
但柔道的熱潮並沒有因此停頓。東尼(郭富城飾演)因其驍勇善戰及柔道技術卓絕,輕而易舉成為擂臺冠軍,被人稱為“新柔道小金剛”。但東尼不甘做別人的影子,于是千方百計找尋當年叱吒柔道界的司徒寶一較高下。
另一方面,一心由臺灣遠赴香港發展其歌唱事業的夢(應採兒飾演),因被經理人欺騙,窮途末路。在誤打誤撞之下,成為由司徒寶掌管的歌廳歌手,繼而與司徒寶出生入死,共同進退,她希望司徒寶可以重新振作,做回昔日積極的柔道高手……

歌舞經理兼樂隊領班司徒寶(古天樂飾) ,是一名柔道高手,數年前不知何故放棄柔道,變得沉淪墮落、嗜賭酗酒。直至好戰尚武的應屆柔道冠軍皮褸Tony (郭富城飾)慕名到來挑戰;宿敵辣手阿岡(梁家輝飾)又因當年一場未完的比賽找上門來;還有,年邁的師傅帶著痴呆兒子阿正,為拯救破落道場來要求阿寶幫助……歌廳頓時變成一眾柔道高手的「競技場」……
司徒寶的秘密此時也再守不住——原來他患有不治的眼疾,視力正漸漸衰退……但他的「心」卻突然看得清明通透,鬥志更再度燃起——他誓要在看到最後一線光明之前將所有對手打敗…… 
In this visually arresting action drama from acclaimed director Johnnie To (Running On Karma, Breaking News), legendary Judo fighter Sze-To (Louis Koo from The Suspect) unexpectedly gave up the sport and now lives the life of an alcoholic gambler who runs a pub. However, cocky Judo champion newcomer Tony (Aaron Kwok from The Storm Riders) wants to challenge him to a duel, while old foe Kong (Tong Leung Ka Fai from Ashes of Time) demands Sze-To to finish the match that never took place. Soon Sze-To's pub became the ultimate arena where the greatest Judo fighters show off their skills. As a result, he vows to take on his opponents before his reason for his early retirement is exposed. Filled with brutal, no-holds-barred Judo fight scenes performed by the actors themselves, Throw-Down is an emotional tale of one man's determination to win at all costs. 

※幕後花絮※
杜琪峰今年繼續多產,去月有大事件,九月又有《龍鳳鬥》,今個月則有《柔道龍 虎榜》,出產的密度高得驚人。在《蜘蛛俠2》及《哈利波特3》兩部荷里活大片夾 攻下,票房不理想也是意料中事,亦難怪電影本身的宣傳亦不多。說回《柔道龍虎 榜》片名,出自七十年代的一齣日本電視劇,但本片的劇情與該電視劇的情節毫無 關係。
本片講述的是一段三個人的友誼,古天樂飾演一個柔道高手,數年前不知何故放棄柔 道,變得沉淪墜落。之後遇上郭富城飾演的好戰尚武的柔道冠軍「皮褸Tony」到來挑 戰,更遇上被迫遷,從而到來見工的應采兒。故事一直只講述三個人之間的友情,而 絲毫不提當中有否任何感情關係,這令故事變得更加單純,一個純粹勵志的友情故事。 三位主角各有各的夢想,古天樂希望終有一天嬴大錢;郭富城希望可與古天樂來次比 試;應采兒則希望能當一個受歡迎的歌手。
《柔道龍虎榜》可謂是集杜琪峰的大成,從燈光、美術、攝影等方面,都可見杜琪峰的 風格,《鎗火》、《真心英雄》、《暗戰2》、《PTU》的影子處處可見,很明顯這是 一部百分百導演主導的電影,畫面全片都以黑色為主。杜琪峰在處理這種導演主導的電 影,往往都帶出很多黑色的感慨,本片也不例外。杜琪峰在之前的《大事件》,帶出了 很多對社會的意見,有千言萬語要說,到了《柔道龍虎榜》,說的不再是對社會的控訴、 批評,反而是對香港人的勉勵。片中一幕講述應采兒想拿到樹上的一個氣球,但單靠一 個人的力量不成功,於是古天樂幫忙,不過還是差少少,最後郭富城也出來幫忙,結果 他們成功了。以及另一幕講述應采兒在外圍賭檔偷錢,被人追殺,之後與她一起的古天 樂被打,當古天樂被放走後,應采兒替他返回被打的地方,替他拾回一隻掉了的鞋。這 兩幕也許都充隱藏很多導演的千言萬語,亦是全片最有人情味的兩幕,看得令人感情溫 暖。不過在本片初段,一幕三人在遊戲機中心合謀偷錢的戲,導演花了很多時間來描述 整個過程,但最後結果又覺得不外如是,感覺只是把劇情拖長。

本片稱之為《柔道龍虎榜》,當中亦有不少柔道的武打場面。不過顯然導演志不在此, 武打場面簡單、清脆,而武打的時間亦短,好幾個武打場面,導演都寧拍蔡一智唱歌, 都不拍武打場面,明顯這幾幕武打場面都只屬增加影片的情懷與氣氛格調。同時亦想一 讚本片的配樂,配樂在本片發揮了很大的作用,幾幕的武打場面,以及之前提到兩場充 滿情懷的文戲,配樂亦設計得宜,令緊湊的劇情更顯氣勢;文戲亦更能顯出其情懷。
演員方面,男主角古天樂演出只屬中規中矩,不知是否他近年拍得太多瘋狂式喜劇,在 本片初段,其演出也多了一份喜劇感,但在尾段文戲上又少了當年《野獸之瞳》的硬朗。 郭富城今年暑假連續上映兩部新作,在本片的演出亦見進步,很高興他能走回成熟路線, 不再去扮年青,今回穿上皮褸,入型入格。本片有三位演員的演出是值得一讚,分別是應 采兒、張兆輝及蔡一智,應采兒飾演立志做歌手的歌女,演得投入,小動作及說話語氣亦 有賣唱歌女的神韻。張兆輝是近年繼林雪之後,最備受杜琪峰重用的演員,今次不用再做 警察,反而飾演有權有力的黑幫,這次大轉型顯得成功,其演出比之前的《大事件》更令 人深刻。至於蔡一智飾演一名智商有問題的兒子,在父親去世後要獨立生活,蔡一智的演 出出奇地投入,非常入戲,而幾場唱歌的鏡頭,其表情亦把角色的傻及無助展現。
總結《柔道龍虎榜》是一部典型的勵志電影,全片充滿濃烈的黑色感,帶出「有志者事竟 成」的老生常談,同時亦抒發出導演勉勵香港人的情懷。拍攝技術都很具杜琪峰個人主義 色彩,演員演出雖未見突出,但也演得恰到好處,動作場面亦簡而精。最後一提本片結束 是打出「終」字,明顯是仿傚日本電影的做法,效果妙趣。

杜琪峰悄然浮出水面的電影《柔道龍虎榜》7月8日將舉行北京首映禮,據中國星介紹,在首映禮當日,郭富城、梁家輝、應採兒等主要演員都將來京造勢。現在關于這部電影的許多獨家幕後故事也終于亮相在觀眾面前,這些讓人看得忍俊不禁。
故事一:應採兒為杜琪峰首度賣唱
應採兒在《柔道龍虎榜》中飾演一名歌女,在電影中差不多有一半的戲份都在舞臺上獻唱。從未在大銀幕獻唱的她,坦言在拍攝前很緊張,所以大約在拍攝此片前三個月,勤奮練習歌藝。電影《柔道龍虎榜》的時代背景為上世紀八十年代,所以應採兒在戲中的歌曲亦是來自八十年代。這方面真的很考驗她,因為她對八十年代的香港流行歌曲從未認識,為了熟悉戲中每一首歌曲,應採兒在每晚睡前也要唱一唱。

故事二:郭富城高手出馬做教練
應採兒熱愛跳舞,但是記憶力比較差,經常忘記舞步,需要高手郭富城做她的跳舞教練為她排舞。
據介紹,應採兒在杜琪峰新片《柔道龍虎榜》中飾演一位懷才不遇的歌手,歌手為了維持生計,要到古天樂的歌廳裏當歌女。她表示:“我自己記性不是太好,因為要跳的舞步是舊式舞,很多舞步都要記得十分清楚,雖然初期跟排舞老師學過,但之後到拍攝時經常都會忘記一些舞步,幸好每一次都有城城在場,他在旁邊看過就能記得一清二楚,記憶力真的很強!”郭富城對此笑說:“她十分緊張,又害怕自己把舞步跳錯而被導演罵,我見到她手足無措,所以便幫她一把,沒有理由見死不救”同時,在《柔道龍虎榜》中飾演一個好戰尚武的柔道高手的郭富城承認,他覺得自己的事業已經到了另一個階段,希望能夠用這部片子作為自己的代表作。

故事三:古天樂苦練柔道自頒黑帶
古天樂最近因為拍攝電影《柔道龍虎榜》,完成了每天的拍攝工作後,還要去學柔道,他表示學柔道最重要是學會拍席卸力,而在苦練了一段時間後,自己已練到柔道的黑帶境界。不過他所謂的黑帶還未正式考牌,所以還不能讓業內人士認可。
古天樂笑說,“一般人學柔道,導師會要求他先將基本功學好,至少要花半年時間,然後才學防守及進攻,而基本功中,最重要是學會怎樣拍席卸力,如果動作及姿勢有一丁點錯誤,很容易會受傷或癱瘓,我也學過基本功,我就是先學會拍席,然後才開始學習黑帶功夫,我將每一招式統統記住,但始終很難活學活用,要學習到黑帶階段其實不難,但是易學難精。”他也坦言,在電影中要經常與陳小春、梁家輝、郭富城對打,令他腰酸背痛,不過這樣也學了很多自衛術,當中包括反手拗斷敵人手腕之武術等。
古天樂又透露他對于運動興趣不大,但喜歡潛水,因為水底世界比較寧靜。

※截  圖※
點擊此處在新視窗瀏覽實際大小的圖片
General
Complete name : 柔道龍虎榜.Throw.Down.2004.BluRay.720p.x264.DualAudio.AC3.mkv
Format : Matroska
File size : 4.37 GiB
Duration : 1h 34mn
Overall bit rate : 6 593 Kbps
Encoded date : UTC 2011-08-10 06:25:33
Writing application : mkvmerge v3.4.0 ('Rapunzel') 編輯於 May 15 2010 09:38:20
Writing library : libebml v0.8.0 + libmatroska v0.9.0
Video #1
ID : 1
Format : AVC
Format/Info : Advanced Video Codec
Format profile : High@L4.1
Format settings, CABAC : Yes
Format settings, ReFrames : 8 frames
Muxing mode : Container profile=Unknown@4.1
Codec ID : V_MPEG4/ISO/AVC
Duration : 1h 34mn
Bit rate : 5 182 Kbps
Nominal bit rate : 5 313 Kbps
Width : 1 280 pixels
Height : 528 pixels
Display aspect ratio : 2.40:1
Frame rate : 24.000 fps
Resolution : 24 bits
Colorimetry : 4:2:0
Scan type : Progressive
Bits/(Pixel*Frame) : 0.319
Stream size : 3.44 GiB (79%)
Title : Move(影片軌)
Writing library : x264 core 116 r2044 392e762
Encoding settings : cabac=1 / ref=8 / deblock=1:-2:-2 / analyse=0x3:0x133 / me=umh / subme=9 / psy=1 / psy_rd=1.20:0.20 / mixed_ref=1 / me_range=16 / chroma_me=1 / trellis=2 / 8x8dct=1 / cqm=0 / deadzone=21,11 / fast_pskip=1 / chroma_qp_offset=-3 / threads=6 / sliced_threads=0 / nr=0 / decimate=0 / interlaced=0 / bluray_compat=0 / constrained_intra=0 / bframes=3 / b_pyramid=2 / b_adapt=2 / b_bias=0 / direct=3 / weightb=1 / open_gop=0 / weightp=2 / keyint=250 / keyint_min=2 / scenecut=40 / intra_refresh=0 / rc_lookahead=60 / rc=2pass / mbtree=1 / bitrate=5313 / ratetol=1.0 / qcomp=0.60 / qpmin=10 / qpmax=51 / qpstep=4 / cplxblur=20.0 / qblur=0.5 / vbv_maxrate=38000 / vbv_bufsize=38000 / nal_hrd=none / ip_ratio=1.40 / aq=1:1.00
Language : Chinese
Audio #2
ID : 2
Format : AC-3
Format/Info : Audio Coding 3
Codec ID : A_AC3
Duration : 1h 34mn
Bit rate mode : Constant
Bit rate : 640 Kbps
Channel(s) : 6 channels
Channel positions : Front: L C R, Surround: L R, LFE
Sampling rate : 48.0 KHz
Video delay : 42ms
Stream size : 435 MiB (10%)
Title : Mandarin(國語)
Language : Chinese
Audio #3
ID : 3
Format : AC-3
Format/Info : Audio Coding 3
Codec ID : A_AC3
Duration : 1h 34mn
Bit rate mode : Constant
Bit rate : 640 Kbps
Channel(s) : 6 channels
Channel positions : Front: L C R, Surround: L R, LFE
Sampling rate : 48.0 KHz
Video delay : 42ms
Stream size : 435 MiB (10%)
Title : Cantonese(粵語)
Language : Chinese 

下載教學步驟一:
進入下載畫面之後,移動到網頁右下方你會看到"普通下載"的按鈕,選擇按下"普通下載"等一下下會出現識別碼,依照顯示的識別碼輸入即可。

下載教學步驟二:
移動到網頁右上方你會看到倒數的秒數出現,等待秒數完成後按下"普通下載"即可下載。

PS:如果識別碼不清楚可以選擇更新輸入後確定等待約20秒即可下載,下載點不支援 訊雷、快車、BT..等等續傳軟體,請使用IE瀏覽器下載。

點擊此處瀏覽連結下載教學網頁圖片請點這裡
KMPlayer Ver.2.9.4.1436影音播放軟體 (內含加掛MP3插件 無所不播無所不放~綠色版免安裝版)→ 點擊此處瀏覽連結下載點這裡
FileServe◎Mipony 1.2.2免費空間下載加速工具 地址→ 點擊此處瀏覽連結下載點這裡
xun6◎Mipony 1.2.2免費空間下載加速工具 地址→ 點擊此處瀏覽連結下載點這裡
-----------------------------------------------------------------
2004 古天樂 郭富城 應采兒 動作劇情片《柔道龍虎榜 Throw Down》高清RD-MKV國粵雙語外掛中英字幕
----------------------------------------------------------------- 
點擊此處瀏覽連結掛機網賺 20dollars2surf,全自動衝浪掛機也可賺錢 點擊此處瀏覽連結※內附完整教學圖※
點擊此處瀏覽連結分割檔可以使用HJSplit 2.3工具合併
點擊此處在新視窗瀏覽實際大小的圖片HJSplit 2.3 檔案分割、合併、比對 繁體中文免安裝版 下載地址→
點擊此處瀏覽連結下載點這裡
點擊此處在新視窗瀏覽實際大小的圖片
BD-720P [MKV]《柔道龍虎榜 Throw Down》下載連結資料夾:
點擊此處在新視窗瀏覽實際大小的圖片
點擊此處瀏覽連結點擊此處註冊後可以免費得到一個750GB的空間獲得高速下載通道:
點擊此處瀏覽連結下載點這裡
點擊此處在新視窗瀏覽實際大小的圖片Folder link: 點擊此處瀏覽連結http://www.wupload.com/folder/e8f6140b2a6243999
點擊此處在新視窗瀏覽實際大小的圖片點擊此處瀏覽連結http://www.wupload.com/folder/531689
點擊此處瀏覽連結分割檔可以使用HJSplit 2.3工具合併
點擊此處在新視窗瀏覽實際大小的圖片點擊此處瀏覽連結Throw.Down.2004.BluRay.720p.x264.DualAudio.AC3.cht.srt 柔道龍虎榜.Throw.Down 繁體中文字幕
點擊此處在新視窗瀏覽實際大小的圖片點擊此處瀏覽連結Throw.Down.2004.BluRay.720p.x264.DualAudio.AC3.chi.srt 柔道龍虎榜.Throw.Down 簡體中文字幕
點擊此處在新視窗瀏覽實際大小的圖片點擊此處瀏覽連結Throw.Down.2004.BluRay.720p.x264.DualAudio.AC3.eng.srt 柔道龍虎榜.Throw.Down 英文字幕

, , , , ,

☜♥☞阿德 發表在 痞客邦 PIXNET 留言(0) 人氣()