1999 葛優 吳倩蓮 喜劇劇情片《沒完沒了》高清BD Rmvb 國語外掛中文字幕【FS WU】
【劇 名】:沒完沒了 / mei wan mei liao
【英 名】:Sorry Baby
【年 代】:1999
【地 區】:中國
【類 型】:喜劇 / 劇情
【語 言】:國語
【字 幕】:外掛中文字幕
【尺 寸】:1280 x 720
【片 長】:01:24:13
【格 式】:RMVB-H264 Audio:RA
【格 式】:RMVB
【容 量】:912 MB
【主 演】:傅彪、葛優、張涵予、吳倩蓮、孫紅雷

點擊此處在新視窗瀏覽實際大小的圖片

※劇情簡介※
老實厚道的出租汽車司機韓冬長年把車包租給旅行社老板阮大偉,但阮大偉卻長期拖欠包租費9萬余元。在再三索要無效的情況下,韓冬自作聰明,將阮大偉因病住院的新加坡女友小蕓從醫院接出,並致電阮大偉聲稱將小蕓“綁架”,以逼其結清欠款。一向驕橫的阮大偉不相信一貫老實的韓冬會真下狠手,電話中惡語相向,並稱寧可撕票也不還錢。小蕓得知自己的性命在阮大偉的眼中比錢還輕,一氣之下與韓冬合作捉弄阮大偉。
於是韓冬開動腦筋,想出了一系列鬼點子。上門服務的高級宴席、全套的按摩泡腳……三下五除二,花了大偉好幾萬塊。心痛之極的大偉氣急敗壞,非要報復韓冬不可。夾在中間的小蕓也不好受,大偉不顧及她的性命是為錢,韓冬千方百計也是為了錢!難道世界上就沒有比金錢更重要的嗎?當小蕓得知韓冬急於要錢是為了供養他世上唯一的親人——躺在醫院毫無知覺,已成植物人的姐姐時,偉大而真誠的親情終於感動了小蕓,她愛上了這個貌不驚人卻心地善良的個體戶司機。 

※截  圖※
點擊此處在新視窗瀏覽實際大小的圖片
General
Complete name : 沒完沒了HD 1280高清無水印.rmvb
Format : RealMedia
File size : 912 MiB
Duration : 1h 24mn
Overall bit rate : 1 482 Kbps
Performer : 
Video #1
ID : 1
Format : RealVideo 4
Codec ID : RV40
Codec ID/Info : Based on AVC (H.264), Real Player 9
Duration : 1h 24mn
Bit rate : 1 418 Kbps
Width : 1 280 pixels
Height : 720 pixels
Display aspect ratio : 16:9
Frame rate : 25.000 fps
Resolution : 12 bits
Bits/(Pixel*Frame) : 0.062
Stream size : 854 MiB (94%)
Audio #0
ID : 0
Format : Cooker
Codec ID : cook
Codec ID/Info : Based on G.722.1, Real Player 6
Duration : 1h 24mn
Bit rate : 64.1 Kbps
Channel(s) : 2 channels
Sampling rate : 44.1 KHz
Resolution : 16 bits
Stream size : 38.6 MiB (4%)

下載教學步驟一:
進入下載畫面之後,移動到網頁右下方你會看到"普通下載"的按鈕,選擇按下"普通下載"等一下下會出現識別碼,依照顯示的識別碼輸入即可。

下載教學步驟二:
移動到網頁右上方你會看到倒數的秒數出現,等待秒數完成後按下"普通下載"即可下載。

PS:如果識別碼不清楚可以選擇更新輸入後確定等待約20秒即可下載,下載點不支援 訊雷、快車、BT..等等續傳軟體,請使用IE瀏覽器下載。

點擊此處瀏覽連結下載教學網頁圖片請點這裡
KMPlayer Ver.2.9.4.1436影音播放軟體 (內含加掛MP3插件 無所不播無所不放~綠色版免安裝版)→ 點擊此處瀏覽連結下載點這裡
FileServe◎Mipony 1.2.2免費空間下載加速工具 地址→ 點擊此處瀏覽連結下載點這裡
xun6◎Mipony 1.2.2免費空間下載加速工具 地址→ 點擊此處瀏覽連結下載點這裡
-----------------------------------------------------------------
1999 葛優 吳倩蓮 喜劇劇情片《沒完沒了 Sorry Baby》高清BD Rmvb 國語外掛中文字幕
----------------------------------------------------------------- 
點擊此處瀏覽連結掛機網賺 20dollars2surf,全自動衝浪掛機也可賺錢 點擊此處瀏覽連結※內附完整教學圖※
點擊此處瀏覽連結分割檔可以使用HJSplit 2.3工具合併
點擊此處在新視窗瀏覽實際大小的圖片HJSplit 2.3 檔案分割、合併、比對 繁體中文免安裝版 下載地址→
點擊此處瀏覽連結下載點這裡
點擊此處在新視窗瀏覽實際大小的圖片
BD-720P [MKV]《沒完沒了 Sorry Baby》下載連結資料夾:
點擊此處在新視窗瀏覽實際大小的圖片
點擊此處瀏覽連結點擊此處注冊後可以免費得到一個500GB的空間獲得高速下載通道:
點擊此處在新視窗瀏覽實際大小的圖片Folder link: 點擊此處瀏覽連結http://www.fileserve.com/list/jxeBJPE
點擊此處瀏覽連結沒完沒了.Sorry.Baby.1999.HD.720P.H264.rmvb下載點這裡 1280 X 720 912MB

點擊此處在新視窗瀏覽實際大小的圖片
點擊此處瀏覽連結點擊此處註冊後可以免費得到一個750GB的空間獲得高速下載通道:
點擊此處瀏覽連結下載點這裡
點擊此處在新視窗瀏覽實際大小的圖片Folder link: 點擊此處瀏覽連結http://www.wupload.com/folder/e8f6140b2a6243999
點擊此處在新視窗瀏覽實際大小的圖片點擊此處瀏覽連結沒完沒了.Sorry.Baby.1999.HD.720P.H264.rmvb 1280 X 720 912MB
點擊此處在新視窗瀏覽實際大小的圖片點擊此處瀏覽連結沒完沒了.Sorry.Baby.1999.中國.XTM.DVD.HALFCD.mkv 640 X 336 309MB
點擊此處在新視窗瀏覽實際大小的圖片點擊此處瀏覽連結沒完沒了.Sorry.Baby.1999.HD.720P.H264.srt Subtitle 字幕檔下載

, , , , ,

☜♥☞阿德 發表在 痞客邦 PIXNET 留言(0) 人氣()