《愛情維修站 The Love Clinic》郭濤 蔡少芬2010年最新愛情喜劇大片高清BD-RMVB [FS MU]
【劇 名】:愛情維修站
【英 名】:The Love Clinic
【年 代】:2010
【地 區】:中國
【類 型】:喜劇 / 愛情 
【語 言】:國語
【字 幕】:中文
【尺 寸】:624 x 336
【片 長】:01:34:49.664
【格 式】:RMVB-XviD Audio:MP3
【格 式】:RMVB
【容 量】:383 MB
【上 映】:2010年
【發 行】:
【導 演】:王甯 Ning Wang
【編 劇】:
【主 演】:郭濤 Tao Guo
      胡靜 Jing Hu
      英達 Da Ying
      蔡少芬 Ada Choi
      張晉 Max Zhang
      苑瓊丹 King-Tan Yuen
      周韋彤 Weitong Zhou
      李菁 Jing Li
      謝園 Yuan Xie
      林柯彤 Ketong Lin
      張海燕 Haiyan Zhang
      張丹峰
      宋軼 Yi Song
      馬麗 Li Ma
      牛犇 Ben Niu
      任斯璐 Si Lu Ren
      王新宇 Xinyu Wang

點擊此處在新視窗瀏覽實際大小的圖片

※劇情簡介※
郭濤與胡靜飾演的一對夫妻開了一個“愛情維修站”,專爲人解決愛情、婚姻中出現的各種問題和麻煩。在這間小小的維修站內,各方人物悉數登場,人間百態紛至遝來。夫妻二人忙得不可開交,連帶著把周圍一幹親戚朋友全部拖下水。成全了一對又一對情侶,結果,自己不僅財政出現赤字,婚姻也亮起紅燈……
離婚登記處工作的葛大偉和結婚登記處工作的陳小玲是對結婚10年的兩口子,二人早已厭倦平淡的生活,但誰也不知道該如何在機會繁多的社會挖到屬於自己的第一桶金。兩人的結婚紀念日,大偉送給陳小玲一張彩票,兩人共進晚餐,並看著電視上搖獎,誰想此票居然中了二等獎。
陳小玲的妹妹陳小芳是個大齡的萬人迷,總是遊戲人間,萬草叢中過,片葉不粘身,在她的有意無意刺激下,陳小玲和葛大偉決定放棄工作,下海成立了自己的公司“愛情維修站”,葛大偉也聯係上了多年不聯係的老同學丁冠西,成爲了合作夥伴。他們的主營業務,就是幫助那些婚姻有危機的人,解決婚姻危機。
葛大偉通過自己的智慧,幫助了許多婚姻瀕臨解體的家庭,一會兒裝大款,一會兒扮成和尚,笑料百出,都圓滿地達到了效果,使出軌者迷途知返,家庭破鏡重圓,但由於資金支配不善,幾單活不但電影下載沒有掙到錢,還往裏搭了三萬多塊,而開公司及裝修已經花光了他們的獎金,連自己的積蓄也搭進去不少。  
愛情維修站似乎有了些名氣,但大偉和小玲的矛盾也在這中間産生了。在愛情維修站瀕臨倒閉之際,大夥爲了挽救這個服務於民的好公司,各自紛紛捐款想讓愛情維修站繼續運營下去,然而主人公的離婚,使他們的夢想,破碎了。 然而,誰能拯救他們的婚姻呢?

※劇情簡介※
《愛情維修站》≥《瘋狂的石頭》+《甲方乙方》
  郭濤英達早前就曾合作過電影,但合演喜劇片還尚屬首次。甯浩導演能有今天成就,郭濤的功勞是不可忽略的。而英達則在馮小剛作品中塑造過一係列的經典形象。作爲兩位國內最頂級喜劇導演的愛將,他們這次聯手出演喜劇就顯得意義重大。
  喜劇電影《愛情維修站》在影片風格上既有甯浩作品複雜、多線索的敘事,同時又有馮小剛作品的親民、人文關懷,可以說是集合了他們在喜劇領域的獨特優勢。同時,王甯結合自身生活體驗,在影片表達了對愛情的深刻認識,喚起了我們對純真愛情久違的信心。
  強強聯手,演繹喜劇角色各有風格
  在拍《愛情維修站》的時候,兩大諧星爭奇鬥豔,相互拚著心勁要在演技上壓倒對方。郭濤在戲中扮演了一個小聰明、小點子不斷的鬼馬老闆,而英達則是一個人傻錢多的花心大款,這兩個人碰到一塊兒,想不樂都難。很多現場工作人員都表示,兩位笑星演戲時都是全力以赴,相當拚命。但二人工作風格又不一樣,郭濤台詞功力比較深厚,一字一句都說得非常嚴謹,基本上能跟劇本上的台詞一字不差。而英達演戲則比較鬆弛,更多時候把重點放在傳達人物狀態上,對人物神情、語氣把握得非常好。兩人的共同點是,演戲進入狀態非常快,很多戲份都能一條就過。
  英達新角色偷師範偉
  “哎喲,這不大師兄嘛”,這是《愛情維修站》中英達的一句台詞。說這句台詞的時候,英達是用一口地道東北腔念出來的,聽起來很像是大城市鐵嶺的口音。英達說,他並不是爲了要趕東北口音的時髦才這樣說,他的祖先其實就是從東北過來的,因此雖然自小在北京長大,但對東北口音卻很有感情。這次爲了演活這個角色,他有意地在克隆範偉的演法。他說:“這個戲其實我是照著範偉來演的,你想想範偉來演會是什麽樣的吧!導演本來也是想找他來演,他沒有檔期,結果我就來了”。接著,他又半開玩笑地說“不過,他演戲像夥夫,我比較像大款”。

※花絮※
·胡靜從沒演過喜劇角色,這次有意挑戰小市民喜劇,黃瓜算是幫上大忙了。劇組裏有那麽多喜劇大腕兒,胡靜不甘心被比下去。郭濤在“戲中戲”裏會給角色設置標誌性動作,胡靜受到啓發也要爲自己的角色設置一個招牌動作,於是盯上了黃瓜。片中胡靜握著根粗大的黃瓜,一邊哭一邊塞滿口,嘴小的胡靜,幾乎是堵滿了整個嘴巴,不顧形象的大口撕咬,大口咀嚼,可謂犧牲形象,完全醜化自己了。
·這場在片中持續時間不到一分鍾的床戲,實際拍攝卻花了不下5個小時,期間郭濤胡靜得一直僅穿睡衣躺在床上。最有趣的是,剛要開始床戲的時候,郭濤突然緊張了,本來這場床戲的關鍵道具之一是啤酒,本來道具組是要在酒瓶裏灌白水的,不過郭濤非要求喝真酒不可。
·海報拍攝現場,胡靜那身護士裝太過性感,卻遭到導演抗議“不要太辣了,我們影片需要你多一點喜感和俏皮”。最終,王甯想了一個狠轍,現場用透明膠帶對護士裝做了一番加工,這才勉強過關。
·戲中要用到蔡少芬的原音,所以平時習慣講粵語的她演起來格外吃力。私下裏,每次隻要郭濤的戲份一結束,還顧不得換下袈裟就在蔡少芬演戲的一旁一字一句地教她發音。
影片看點
看點一:衆星打造浪漫愛情喜劇
電影《愛情維修站》區別於其他無厘頭搞笑喜劇,而是回歸比較傳統的喜劇當中,主要以輕鬆幽默的對白以及詼諧搞笑的橋段博觀衆一笑,加之郭濤,英達,苑瓊丹,牛犇,謝園等喜劇大拿的傾力加盟,更是對本片起到了錦上添花的作用。
看點二:不同年齡段各階層愛情瓶頸大集錦
電影《愛情維修站》緊貼生活,描繪出許多現實生活中的戀愛關係,電影裏有破壞別人家庭的小三,有整日爭吵卻又真心相愛的夫妻,有單戀空姐的城市白領,幾乎每個戀愛過的人都能在電影中找到自己的影子,能極大的引起觀衆共鳴。另外"愛情維修站"的概念也比較新穎,使得本片又區別於其他單純的愛情喜劇,顯得卓爾不群。
看點三:群星顛覆形象演出
雖然郭濤在電影中是個不折不扣的好男人,但是爲了挽救別人的愛情,他又扮大款又裝僧侶,還一度成爲張丹峰的愛情軍師,"千麵郎君"這個名號當之無愧。胡靜不但擺脫以往美麗清新的形象,還一度帶牙套扮"鋼牙妹",可謂犧牲不小。張晉和蔡少芬夫婦首次在電影中合作,火花十足。英達在演繹了《風聲》﹑《東風雨》後強勢回歸喜劇,也值得期待。風華絕代的 "石榴姐"苑瓊丹一改往日老鴇等形象此次變身被小三破壞家庭的受害者,也令人耳目一新。另外還有老戲骨謝園加盟,扮演一個名叫丁冠西的私家偵探,剛一出場就是偷拍出軌免費電影丈夫的場景,十分搶眼。許久不見的戲精牛犇也傾力加盟,也有十分精彩的表現。
幕後花絮
胡靜從沒演過喜劇角色,這次有意挑戰小市民喜劇,黃瓜算是幫上大忙了。劇組裏有那麽多喜劇大腕兒,胡靜不甘心被比下去。郭濤在"戲中戲"裏會給角色設置標誌性動作,胡靜受到啓發也要爲自己的角色設置一個招牌動作,於是盯上了黃瓜。片中胡靜握著根粗大的黃瓜,一邊哭一邊塞滿口,嘴小的胡靜,幾乎是堵滿了整個嘴巴,不顧形象的大口撕咬,大口咀嚼,可謂犧牲形象,完全醜化自己了。
創作案由
現代社會,飛速發展,人們追求事業、渴望進步的腳步也越來越忙亂。當我們事業步步高升,生活越來越好,而現代人的感情卻在一幢幢高樓大廈、鋼精水泥間越來越淡。沒完沒了的加班,紙醉金迷的誘惑,使人們漸漸迷失了自己。可是,我們每個人都渴望愛,渴望幸福的婚姻和家庭。愛,使人生更完美,也讓社會更和諧。
喜劇電影《愛情維修站》則以一種獨特的表現手法,使人們在輕鬆地笑過之後,能夠更理智地去理解愛與被愛,啓發現代人們重新審視和思考現代婚姻與家庭。讓大家從《愛情維修站》中的故事中得到快樂,同時,帶著一顆輕鬆的心去學會愛與被愛。超越了年齡、地域、性別的差異,彼此更加和諧,和劇中人物共同演繹人類最偉大的情感---愛!
正是基於這樣的一個緣由,我們創作了愛情喜劇電影《愛情維修站》。
本片通過看似平常,卻發人深思的故事表達出 "愛與真誠是構建和諧社會基礎"的主題,以此得到全社會的廣泛認同,是我們推出電影《愛情維修站》的最終目的。如果說觀看影片是一種感受愛的過程,那麽觀衆最終將認同和習慣一種愛的表達。
創作背景
我的愛情我做主,每個人都有愛與被愛的權利,無論是愛或是被愛,你在進行愛的同時就要承擔相應的愛的義務!"婚姻是愛情的墳墓!"我們姑且先不討論他是對還是錯。"婚姻是愛情的升華"我們也不能否認他的單一!自古就有愛情的力量之偉大,我們始終是在贊美愛情,歌頌愛情--殊不知,在當代社會的今天,時代的變遷,愛情也在變!變好還是變壞?這完全掌握在你的手中!可有時內心中的感情不能盡情表達給對方,而使雙方造成不必要的誤會使得兩個明明彼此相愛的情侶最終畫上休止符。我們崇尚美好的愛情,希望每一對相戀的情侶都可以佳偶天成。

※截  圖※
點擊此處在新視窗瀏覽實際大小的圖片
General
Complete name : 愛情維修站 The Love Clinic.rmvb
Format : RealMedia
File size : 384 MiB
Duration : 1h 36mn
Overall bit rate : 547 Kbps
Video #1
ID : 1
Format : RealVideo 4
Codec ID : RV40
Codec ID/Info : Based on AVC (H.264), Real Player 9
Duration : 1h 36mn
Bit rate : 483 Kbps
Width : 624 pixels
Height : 336 pixels
Display aspect ratio : 1.857
Frame rate : 25.000 fps
Resolution : 12 bits
Bits/(Pixel*Frame) : 0.092
Stream size : 333 MiB (87%)
Audio #0
ID : 0
Format : Cooker
Codec ID : cook
Codec ID/Info : Based on G.722.1, Real Player 6
Duration : 1h 36mn
Bit rate : 64.1 Kbps
Channel(s) : 2 channels
Sampling rate : 44.1 KHz
Resolution : 16 bits
Stream size : 44.2 MiB (12%)

下載教學步驟一:
進入下載畫面之後,移動到網頁右下方你會看到"普通下載"的按鈕,選擇按下"普通下載"等一下下會出現識別碼,依照顯示的識別碼輸入即可。

下載教學步驟二:
移動到網頁右上方你會看到倒數的秒數出現,等待秒數完成後按下"普通下載"即可下載。

PS:如果識別碼不清楚可以選擇更新輸入後確定等待約20秒即可下載,下載點不支援 訊雷、快車、BT..等等續傳軟體,請使用IE瀏覽器下載。

點擊此處瀏覽連結下載教學網頁圖片請點這裡
KMPlayer Ver.2.9.4.1436影音播放軟體 (內含加掛MP3插件 無所不播無所不放~綠色版免安裝版)→ 點擊此處瀏覽連結下載點這裡
FileServe◎Mipony 1.2.2免費空間下載加速工具 地址→ 點擊此處瀏覽連結下載點這裡
xun6◎Mipony 1.2.2免費空間下載加速工具 地址→ 點擊此處瀏覽連結下載點這裡
-----------------------------------------------------------------
《愛情維修站 The Love Clinic》郭濤、蔡少芬2010年國産最新愛情喜劇大片 高清BD-RMVB國語中字
----------------------------------------------------------------- 
點擊此處瀏覽連結點擊此處注冊後可以免費得到一個500GB的空間獲得高速下載通道: 
點擊此處瀏覽連結掛機網賺 20dollars2surf,全自動衝浪掛機也可賺錢 點擊此處瀏覽連結※內附完整教學圖※
點擊此處在新視窗瀏覽實際大小的圖片
BD-720P [MKV]
< 《愛情維修站 The Love Clinic》下載連結資料夾 >
點擊此處在新視窗瀏覽實際大小的圖片
點擊此處瀏覽連結下載點這裡
Folder link: 點擊此處瀏覽連結http://www.fileserve.com/list/jxeBJPE
點擊此處在新視窗瀏覽實際大小的圖片點擊此處瀏覽連結愛情維修站 The Love Clinic.rmvb 383MB

點擊此處瀏覽連結分割檔可以使用HJSplit 2.3工具合併
點擊此處在新視窗瀏覽實際大小的圖片HJSplit 2.3 檔案分割、合併、比對 繁體中文免安裝版 下載地址→
點擊此處瀏覽連結下載點這裡

, , ,

☜♥☞阿德 發表在 痞客邦 PIXNET 留言(0) 人氣()