2010最新上映 李連杰 動作大片《敢死隊 The Expendables》高清BD-RMVB英語中字【FS MU】
【劇 名】:敢死隊/犧牲品/浴血任務/轟天猛將
【英 名】:The Expendables
【年 代】:2010
【地 區】:美國
【類 型】:動作 / 冒險 / 驚悚
【語 言】:英語
【字 幕】:中英雙字
【尺 寸】:1024 x 576
【片 長】:01:34:49.664
【格 式】:RMVB-X264 Audio:AAC
【格 式】:RMVB
【容 量】:897.05MB
【上 映】:2010年
【導 演】:西爾維斯特·史泰龍Sylvester Stallone
【主 演】:西爾維斯特·史泰龍Sylvester Stallone ….Barney 'The Schizo' Ross
李連杰 Jet Li ….Yin Yang
傑森·斯坦森Jason Statham ….Lee Christmas
杜夫·朗格 Dolph Lundgren ….Gunnar Jensen
埃里克·羅伯茨Eric Roberts ….James Monroe
蘭迪·庫卓 Randy Couture ….Toll Road

點擊此處在新視窗瀏覽實際大小的圖片

※劇情簡介※
影片講述了美國政府想僱人深入南美某國推翻當地的獨裁統治,但是卻沒人敢接受這樣的任務,最終這個任務落到史泰龍率領的一支特別行動小組身上。史泰龍飾演 的頭領巴尼·羅斯是個沒什麼可以失去的男人,他深謀遠慮卻又憤世嫉俗,他唯一信任的伙伴就是他那輛破舊的卡車、水上飛機和他忠誠的小隊。他的隊員Lee Christmas(傑森·斯坦森飾)是名SAS成員;Bao Thao(李連杰飾)是個近身搏鬥高手;Hale Caesar (泰瑞·克魯斯飾)這個和巴尼·羅斯相熟10年傢伙是個遠距離武器專家;Toll Road (蘭迪·庫卓飾)精通爆炸,並且是團隊的智囊團;最後是Gunnar Jensen(杜夫·朗格飾)一個精通狙擊的老兵,但卻需要時時刻刻與自己的心魔作鬥爭。

※截  圖※
點擊此處在新視窗瀏覽實際大小的圖片
General
Complete name : 敢死隊 The Expendables.rmvb
Format : RealMedia
File size : 897 MiB
Duration : 1h 43mn
Overall bit rate : 1 191 Kbps
Video #1
ID : 1
Format : RealVideo 4
Codec ID : RV40
Codec ID/Info : Based on AVC (H.264), Real Player 9
Duration : 1h 43mn
Bit rate : 1 127 Kbps
Width : 1 024 pixels
Height : 576 pixels
Display aspect ratio : 16:9
Frame rate : 23.000 fps
Resolution : 12 bits
Bits/(Pixel*Frame) : 0.083
Stream size : 834 MiB (93%)
Audio #0
ID : 0
Format : Cooker
Codec ID : cook
Codec ID/Info : Based on G.722.1, Real Player 6
Duration : 1h 43mn
Bit rate : 64.1 Kbps
Channel(s) : 2 channels
Sampling rate : 44.1 KHz
Resolution : 16 bits
Stream size : 47.4 MiB (5%)

下載教學步驟一:
進入下載畫面之後,移動到網頁右下方你會看到"普通下載"的按鈕,選擇按下"普通下載"等一下下會出現識別碼,依照顯示的識別碼輸入即可。

下載教學步驟二:
移動到網頁右上方你會看到倒數的秒數出現,等待秒數完成後按下"普通下載"即可下載。

PS:如果識別碼不清楚可以選擇更新輸入後確定等待約20秒即可下載,下載點不支援 訊雷、快車、BT..等等續傳軟體,請使用IE瀏覽器下載。

點擊此處瀏覽連結下載教學網頁圖片請點這裡
KMPlayer Ver.2.9.4.1436影音播放軟體 (內含加掛MP3插件 無所不播無所不放~綠色版免安裝版)→ 點擊此處瀏覽連結下載點這裡
FileServe◎Mipony 1.2.2免費空間下載加速工具 地址→ 點擊此處瀏覽連結下載點這裡
xun6◎Mipony 1.2.2免費空間下載加速工具 地址→ 點擊此處瀏覽連結下載點這裡
-----------------------------------------------------------------
2010最新上映 李連杰 動作大片《敢死隊 The Expendables》高清BD-RMVB英語中字
----------------------------------------------------------------- 
點擊此處瀏覽連結點擊此處注冊後可以免費得到一個500GB的空間獲得高速下載通道: 
點擊此處瀏覽連結掛機網賺 20dollars2surf,全自動衝浪掛機也可賺錢 點擊此處瀏覽連結※內附完整教學圖※
點擊此處在新視窗瀏覽實際大小的圖片
BD-720P [MKV]
< 《敢死隊 The Expendables》下載連結資料夾 >
點擊此處在新視窗瀏覽實際大小的圖片
點擊此處瀏覽連結下載點這裡
Folder link: 點擊此處瀏覽連結http://www.fileserve.com/list/jxeBJPE
點擊此處在新視窗瀏覽實際大小的圖片點擊此處瀏覽連結敢死隊 The Expendables.rmvb 897.05MB

點擊此處瀏覽連結分割檔可以使用HJSplit 2.3工具合併
點擊此處在新視窗瀏覽實際大小的圖片HJSplit 2.3 檔案分割、合併、比對 繁體中文免安裝版 下載地址→
點擊此處瀏覽連結下載點這裡

, , , , ,

☜♥☞阿德 發表在 痞客邦 PIXNET 留言(0) 人氣()