2011最新上映 梁家輝 林熙蕾 懸疑 驚悚大片《奪命心跳》高清BD-MP4國語中字【FS MU】
【劇 名】:奪命心跳/救我II
【英 名】:The Devil Inside Me
【英 譯】:Duo Ming Xin Tiao
【年 代】:2011
【地 區】:中國香港
【類 型】:劇情 / 驚悚 / 恐怖 / 懸疑
【語 言】:國語
【字 幕】:內嵌中英雙語
【尺 寸】:720 x 480
【片 長】:01:32:21
【格 式】:MP4-X264 Audio:AAC
【格 式】:MP4
【容 量】:857 MB
【上 映】:2011年7月2日
【發 行】:西安曲江影視投資(集團)有限公司/西安曲江文化産業風險投資有限公司
【導 演】:張琦
【編 劇】:張琦、黃葦
【主 演】:梁家輝、林熙蕾、黃維德、安雅

點擊此處在新視窗瀏覽實際大小的圖片

點擊此處在新視窗瀏覽實際大小的圖片

點擊此處在新視窗瀏覽實際大小的圖片

※劇情簡介※
林嫣(林熙蕾飾)是一個因心臟移植手術而陷入絕境的美麗女子,做完心臟移植手術後發現,自己正在逐漸變成另外一個女子!林嫣認
為自己遇到的種種詭異都是移植的心臟帶來的,她正在變成死去的心臟主人江北燕…… 全片沒有妖魔鬼魂,沒有尖聲怪叫,更沒有人為的怪
聲巨響,而憑借猜摸不透、撲朔迷離的故事情節,令觀眾驚悚萬分。

由影帝梁家輝、性感女神林熙蕾首度牽手主演的驚悚懸疑電影《奪命心跳》即將與7月2日全面公映。時至盛夏暑期,世紀佳緣網站與《奪命心跳》片方聯手發力,6月26日邀請會員參加“電影相親會”,期望借這部驚悚愛情電影,為觀眾找到另一半。
《奪命心跳》講述了心臟病患者林熙蕾,在接受心臟移植手術之後,開始發現自己正在逐漸變成另外一個女人,而這種種詭異的現象,似乎都與她接受移植的心臟有關。為此,她開始不斷追尋真相,卻又使自己陷入了更加撲朔迷離的危險境地。影片中雖然充斥著驚悚、懸疑的內容,“為愛瘋狂”卻也成為了眾人議論的話題之一。在《奪命心跳》中扮演奪命醫生的梁家輝借用醫療手段殺人于無形,最終卻只是為了達到“愛人”的目的,儘管手法讓人毛骨悚然,卻也能讓人察覺其中他為愛甘願付出一切的浪漫。無巧不成書,影片女主角林熙蕾更是因為出演這部電影過於辛苦,回到美國後便結婚生子,也成為了這部電影的焦點話題。
世紀佳緣網站的負責人在介紹這次活動時表示,“我們都知道,帶男/女朋友看恐怖片是最好的約會,而《奪命心跳》中間不僅有恐怖,還有糾結的愛情故事,這樣成為讓本站會員尋找另一半的良好契機,借林熙蕾小姐帶來的緣分,我們希望有七夕節前有更多的人能終成眷屬。”
《奪命心跳》由林熙蕾、梁家輝、安雅、黃維德聯手出演,將於7月2日盛夏時節,戰栗上映。

接受過心臟移植手術的林嫣驚然發現,胸中這顆心臟正要把她變成另外一個人。有一種理論說科學發現人類細胞組織也會有記憶功能,所以器官移植很可能會帶來提供者的部分記憶。她求助主治醫生蔣牧,但蔣牧卻把這一切歸結為移植手術後的心理壓力,可偶然看到的一棟老房子卻將一切都顛覆。
  林嫣找到了心臟提供者江北燕的男友馬本科,想要了解江北燕的過去,卻意外得知還有一個X牽扯其中,而江北燕,很可能不是自殺,而是他殺!
  鏡中女人、深水窒息,繞樑女聲,飄忽魅影,夜半敲門等等噩夢頻頻加劇,讓林焉的生活處於崩潰邊緣……她終於決定利用心臟記憶找出真相,解開自己身上的疑團。
  馬本科沉浸在女友的離去中無法自拔,甚至把林嫣錯認為是江北燕,而林嫣無意中卻在蔣牧身上看到了那個江北燕在日記中提到過的X型胎記,蔣牧就是X?
  正當所有的碎片變得逐漸清晰時,蔣牧卻說出了一個驚天的秘密,林嫣沒辦法承受真相帶來的打擊,她甚至想到了自殺……
  可是真正的真相到底為何?林嫣會如何選擇?馬本科又為何會命懸一綫?
  真相,永遠在迷霧之中,但真相,也總會有浮出水面的那一刻……
  After a heart transplant surgery, Lin Yan found that theheart is going to make her into a different person. There is a theory of scientific discovery that human cells andtissues will have memory,so organ transplant is likely to bring the provider part of the memory. Lin Yan asks her doctor Jiang Mu for help, butJiang Mu puts all these strange things comedown to psychological pressure after transplant. Occasionally, Lin Yan passing an oldhouse, that changes everything。
  Lin Yan found her heart provider’s boyfriend,who names Ma Benke. Ma told Lin about the death of Jiang Beiyan, the heartprovider, who killed herself。
  Women in the mirror, deep asphyxia, proudly Girls, uncertain Phantom of the Opera, the midnight knock on the door so frequently exacerbate thenightmare…All the thing make Lin Yan nearly collapse. Finally, she decided to find out the truth of the memory of heart。
  Ma immersed in his girlfriend's departure.He even treat Lin as Jiang mistakenly. AndLin found a X-birthmark which Jiang Beiyan mentioned inher diary in Jiang Mu’s arm inadvertently. Thatmeans Jiang Mu is the X。
  Finally,Jiang Mu admitted that he was X, andhe also told Lin a big secret for why he killed Jiang Beiyan. Lin
  Yan could not bearthe pain of truth. She thought of suicide。
  But the real truth is far more than that. How Lin Yan would choose?And Why Ma dying?
  The truth, is always in the mist. And the truth, is always come out at last。

※截  圖※
點擊此處在新視窗瀏覽實際大小的圖片
General
Complete name : 奪命心跳 The Devil Inside Me.480P.mp4
Format : MPEG-4
Format profile : Base Media
Codec ID : isom
File size : 857 MiB
Duration : 1h 32mn
Overall bit rate : 1 297 Kbps
Encoded date : UTC 2011-08-18 04:53:22
Tagged date : UTC 2011-08-18 04:53:22
Video #1
ID : 1
Format : AVC
Format/Info : Advanced Video Codec
Format profile : Main@L3.0
Format settings, CABAC : Yes
Format settings, ReFrames : 3 frames
Codec ID : avc1
Codec ID/Info : Advanced Video Coding
Duration : 1h 32mn
Bit rate mode : Variable
Bit rate : 1 200 Kbps
Maximum bit rate : 5 370 Kbps
Width : 720 pixels
Height : 480 pixels
Display aspect ratio : 16:9
Original display aspect ratio : 16:9
Frame rate mode : Constant
Frame rate : 24.000 fps
Standard : NTSC
Resolution : 24 bits
Colorimetry : 4:2:0
Scan type : Progressive
Bits/(Pixel*Frame) : 0.145
Stream size : 791 MiB (92%)
Writing library : x264 core 68 r1183M f21daff
Encoding settings : cabac=1 / ref=3 / deblock=1:0:0 / analyse=0x1:0x111 / me=hex / subme=7 / psy_rd=1.0:0.0 / mixed_ref=1 / me_range=16 / chroma_me=1 / trellis=0 / 8x8dct=0 / cqm=0 / deadzone=21,11 / chroma_qp_offset=-2 / threads=2 / nr=0 / decimate=0 / mbaff=0 / bframes=2 / b_pyramid=0 / b_adapt=1 / b_bias=0 / direct=2 / wpredb=0 / keyint=250 / keyint_min=25 / scenecut=40 / rc=abr / bitrate=1200 / ratetol=1.0 / qcomp=0.60 / qpmin=10 / qpmax=51 / qpstep=4 / ip_ratio=1.40 / pb_ratio=1.30 / aq=1:1.00
Encoded date : UTC 2011-08-18 04:53:22
Tagged date : UTC 2011-08-18 04:54:28
Audio #2
ID : 2
Format : AAC
Format/Info : Advanced Audio Codec
Format version : Version 4
Format profile : LC
Format settings, SBR : No
Codec ID : 40
Duration : 1h 32mn
Bit rate mode : Variable
Bit rate : 96.0 Kbps
Maximum bit rate : 107 Kbps
Channel(s) : 2 channels
Channel positions : L R
Sampling rate : 44.1 KHz
Resolution : 16 bits
Stream size : 63.4 MiB (7%)
Encoded date : UTC 2011-08-18 04:54:21
Tagged date : UTC 2011-08-18 04:54:28

下載教學步驟一:
進入下載畫面之後,移動到網頁右下方你會看到"普通下載"的按鈕,選擇按下"普通下載"等一下下會出現識別碼,依照顯示的識別碼輸入即可。

下載教學步驟二:
移動到網頁右上方你會看到倒數的秒數出現,等待秒數完成後按下"普通下載"即可下載。

PS:如果識別碼不清楚可以選擇更新輸入後確定等待約20秒即可下載,下載點不支援 訊雷、快車、BT..等等續傳軟體,請使用IE瀏覽器下載。

點擊此處瀏覽連結下載教學網頁圖片請點這裡
KMPlayer Ver.2.9.4.1436影音播放軟體 (內含加掛MP3插件 無所不播無所不放~綠色版免安裝版)→ 點擊此處瀏覽連結下載點這裡
FileServe◎Mipony 1.2.2免費空間下載加速工具 地址→ 點擊此處瀏覽連結下載點這裡
xun6◎Mipony 1.2.2免費空間下載加速工具 地址→ 點擊此處瀏覽連結下載點這裡
-----------------------------------------------------------------
2011最新上映 梁家輝 林熙蕾 懸疑 驚悚大片《奪命心跳 The Devil Inside Me》高清BD-MP4國語中字
----------------------------------------------------------------- 
點擊此處瀏覽連結點擊此處注冊後可以免費得到一個500GB的空間獲得高速下載通道: 
點擊此處瀏覽連結掛機網賺 20dollars2surf,全自動衝浪掛機也可賺錢 點擊此處瀏覽連結※內附完整教學圖※
點擊此處在新視窗瀏覽實際大小的圖片
BD-720P [MKV]
< 《奪命心跳 The Devil Inside Me》下載連結資料夾 >
點擊此處在新視窗瀏覽實際大小的圖片
點擊此處瀏覽連結下載點這裡
Folder link: 點擊此處瀏覽連結http://www.fileserve.com/list/jxeBJPE
點擊此處在新視窗瀏覽實際大小的圖片點擊此處瀏覽連結奪命心跳 The Devil Inside Me.480P.mp4 857MB
點擊此處在新視窗瀏覽實際大小的圖片點擊此處瀏覽連結奪命心跳 The Devil Inside Me.rmvb 409MB
點擊此處在新視窗瀏覽實際大小的圖片點擊此處瀏覽連結奪命心跳.Duo.Ming.Xin.Tiao.mkv 409MB

點擊此處瀏覽連結分割檔可以使用HJSplit 2.3工具合併
點擊此處在新視窗瀏覽實際大小的圖片HJSplit 2.3 檔案分割、合併、比對 繁體中文免安裝版 下載地址→
點擊此處瀏覽連結下載點這裡

, , ,

☜♥☞阿德 發表在 痞客邦 PIXNET 留言(1) 人氣()


留言列表 (1)

發表留言