2011 陳小春 恐怖驚悚劇情片《孤島驚魂》高清BD-MKV國粵雙語中字【FS MU】
【劇 名】:孤島驚魂
【英 名】:Mysterious Island
【年 代】:2011
【地 區】:中國
【類 型】:劇情 / 驚悚 / 恐怖
【語 言】:國語/粵語
【字 幕】:簡中/繁中/英文
【尺 寸】:720 x 400
【片 長】:01:38:36
【格 式】:MKV-X264 Audio:AC3
【格 式】:MKV
【容 量】:1.46 GB
【上 映】:2011年7月8日
【發 行】:美亞娛樂 East Film Company
【導 演】:鍾繼昌
【編 劇】:藍煬 Lan Yang
【主 演】:陳小春、楊冪、葉山豪、蔡淑臻、黃又南、徐天祐、安雅、譚俊彥、李曼筠、徐自賢

點擊此處在新視窗瀏覽實際大小的圖片

※劇情簡介※
一次「生存遊戲」將彭飛(陳小春)、依琳(楊冪)與其他六名同樣年輕俊美的男女聚在一起,在電視台主持人及攝影師的帶領下前往遠離塵世的孤島。他們彼此陌生、各懷心事,但目的卻只有一個——為了百萬元的巨額獎金。利益驅使他們從登上遊船那一刻起便開始針鋒相對,但又無法阻止荷爾蒙的分泌,碧海藍天下曖昧在陌生男女間肆意滋生,卻不知危險已經悄悄降臨。
離奇的翻船、濃霧籠罩的海灘、充滿陷阱的叢林,無數死亡的徵兆預示著這絕不是一場有驚無險的「遊戲」。可是金錢的誘惑已然超過了死亡的威脅,一張解開小島神秘面紗的地圖被當作開啟寶藏的鑰匙,然而開啟的卻是一道通向死亡的大門。
遊戲比賽變成生死逃亡,唯一的避難所卻才是真正的墳場。一所廢棄的麻風病院,一個長達百年的死亡詛咒。暗藏玄機的金塔每一次破裂都伴隨著一次殺戮,隊友接連離奇死亡,靈異事件不斷升級,恐怖籠罩整個孤島。
時間倒計,真相浮... (展開全部)   一次「生存遊戲」將彭飛(陳小春)、依琳(楊冪)與其他六名同樣年輕俊美的男女聚在一起,在電視台主持人及攝影師的帶領下前往遠離塵世的孤島。他們彼此陌生、各懷心事,但目的卻只有一個——為了百萬元的巨額獎金。利益驅使他們從登上遊船那一刻起便開始針鋒相對,但又無法阻止荷爾蒙的分泌,碧海藍天下曖昧在陌生男女間肆意滋生,卻不知危險已經悄悄降臨。
離奇的翻船、濃霧籠罩的海灘、充滿陷阱的叢林,無數死亡的徵兆預示著這絕不是一場有驚無險的「遊戲」。可是金錢的誘惑已然超過了死亡的威脅,一張解開小島神秘面紗的地圖被當作開啟寶藏的鑰匙,然而開啟的卻是一道通向死亡的大門。
遊戲比賽變成生死逃亡,唯一的避難所卻才是真正的墳場。一所廢棄的麻風病院,一個長達百年的死亡詛咒。暗藏玄機的金塔每一次破裂都伴隨著一次殺戮,隊友接連離奇死亡,靈異事件不斷升級,恐怖籠罩整個孤島。
時間倒計,真相浮出水面之時已然接近死亡的終點!生存遊戲,是否真的會有人生還?
答案,即將揭曉…… 

※截  圖※
點擊此處在新視窗瀏覽實際大小的圖片
General
Complete name : 孤島驚魂.Mysterious.Island.2011.DVDRip.x264.2Audio.AC3.mkv
Format : Matroska
File size : 1.46 GiB
Duration : 1h 38mn
Overall bit rate : 2 124 Kbps
Encoded date : UTC 2011-09-02 23:22:50
Writing application : mkvmerge v4.7.0 ('Just Like You Imagined') built on Apr 21 2011 01:13:14
Writing library : libebml v1.2.0 + libmatroska v1.1.0
Video #1
ID : 1
Format : AVC
Format/Info : Advanced Video Codec
Format profile : High@L3.0
Format settings, CABAC : Yes
Format settings, ReFrames : 5 frames
Muxing mode : Container profile=Unknown@3.0
Codec ID : V_MPEG4/ISO/AVC
Duration : 1h 38mn
Bit rate : 1 314 Kbps
Nominal bit rate : 1 353 Kbps
Width : 720 pixels
Height : 400 pixels
Display aspect ratio : 16:9
Frame rate : 29.970 fps
Resolution : 24 bits
Colorimetry : 4:2:0
Scan type : Progressive
Bits/(Pixel*Frame) : 0.152
Stream size : 926 MiB (62%)
Title : Move(影片軌)
Writing library : x264 core 115 r1995 c1e60b9
Encoding settings : cabac=1 / ref=5 / deblock=1:-1:-1 / analyse=0x3:0x113 / me=umh / subme=10 / psy=1 / psy_rd=1.00:0.15 / mixed_ref=1 / me_range=16 / chroma_me=1 / trellis=2 / 8x8dct=1 / cqm=0 / deadzone=21,11 / fast_pskip=1 / chroma_qp_offset=-3 / threads=9 / sliced_threads=0 / nr=0 / decimate=1 / interlaced=0 / bluray_compat=0 / constrained_intra=0 / bframes=5 / b_pyramid=2 / b_adapt=2 / b_bias=0 / direct=3 / weightb=1 / open_gop=0 / weightp=2 / keyint=250 / keyint_min=25 / scenecut=40 / intra_refresh=0 / rc_lookahead=50 / rc=2pass / mbtree=1 / bitrate=1353 / ratetol=1.0 / qcomp=0.60 / qpmin=0 / qpmax=69 / qpstep=4 / cplxblur=20.0 / qblur=0.5 / ip_ratio=1.40 / aq=1:1.00
Language : Chinese
Audio #2
ID : 2
Format : AC-3
Format/Info : Audio Coding 3
Codec ID : A_AC3
Duration : 1h 38mn
Bit rate mode : Constant
Bit rate : 384 Kbps
Channel(s) : 6 channels
Channel positions : Front: L C R, Surround: L R, LFE
Sampling rate : 48.0 KHz
Stream size : 271 MiB (18%)
Title : Cantonese(粵語)
Language : Chinese
Audio #3
ID : 3
Format : AC-3
Format/Info : Audio Coding 3
Codec ID : A_AC3
Duration : 1h 38mn
Bit rate mode : Constant
Bit rate : 384 Kbps
Channel(s) : 6 channels
Channel positions : Front: L C R, Surround: L R, LFE
Sampling rate : 48.0 KHz
Stream size : 271 MiB (18%)
Title : Mandarin(國語)
Language : Chinese
Text #4
ID : 4
Format : VobSub
Codec ID : S_VOBSUB
Codec ID/Info : The same subtitle format used on DVDs
Title : ENG(英文字幕)
Language : English

下載教學步驟一:
進入下載畫面之後,移動到網頁右下方你會看到"普通下載"的按鈕,選擇按下"普通下載"等一下下會出現識別碼,依照顯示的識別碼輸入即可。

下載教學步驟二:
移動到網頁右上方你會看到倒數的秒數出現,等待秒數完成後按下"普通下載"即可下載。

PS:如果識別碼不清楚可以選擇更新輸入後確定等待約20秒即可下載,下載點不支援 訊雷、快車、BT..等等續傳軟體,請使用IE瀏覽器下載。

點擊此處瀏覽連結下載教學網頁圖片請點這裡
KMPlayer Ver.2.9.4.1436影音播放軟體 (內含加掛MP3插件 無所不播無所不放~綠色版免安裝版)→ 點擊此處瀏覽連結下載點這裡
FileServe◎Mipony 1.2.2免費空間下載加速工具 地址→ 點擊此處瀏覽連結下載點這裡
xun6◎Mipony 1.2.2免費空間下載加速工具 地址→ 點擊此處瀏覽連結下載點這裡
-----------------------------------------------------------------
2011 陳小春 恐怖驚悚劇情片《孤島驚魂 Mysterious Island》高清BD-MKV國粵雙語中字
----------------------------------------------------------------- 
點擊此處瀏覽連結點擊此處注冊後可以免費得到一個500GB的空間獲得高速下載通道: 
點擊此處瀏覽連結掛機網賺 20dollars2surf,全自動衝浪掛機也可賺錢 點擊此處瀏覽連結※內附完整教學圖※
點擊此處在新視窗瀏覽實際大小的圖片
BD-720P [MKV]
< 《孤島驚魂 Mysterious Island》下載連結資料夾 >
點擊此處在新視窗瀏覽實際大小的圖片
點擊此處瀏覽連結下載點這裡
Folder link: 點擊此處瀏覽連結http://www.fileserve.com/list/jxeBJPE
點擊此處在新視窗瀏覽實際大小的圖片點擊此處瀏覽連結孤島驚魂.Mysterious.Island.2011.DVDRip.x264.2Audio.AC3.mkv.001
點擊此處在新視窗瀏覽實際大小的圖片點擊此處瀏覽連結孤島驚魂.Mysterious.Island.2011.DVDRip.x264.2Audio.AC3.mkv.002
點擊此處在新視窗瀏覽實際大小的圖片點擊此處瀏覽連結孤島驚魂.Mysterious.Island.2011.DVDRip.x264.2Audio.AC3.mkv.003
點擊此處在新視窗瀏覽實際大小的圖片點擊此處瀏覽連結孤島驚魂.Mysterious.Island.2011.DVDRip.x264.2Audio.AC3.mkv.004
點擊此處在新視窗瀏覽實際大小的圖片點擊此處瀏覽連結孤島驚魂.中文/英文字幕檔.Mysterious.Island-SubTitle.rar
孤島驚魂.Mysterious.Island.2011.DVDRip.x264.2Audio.AC3.mkv.001 002 003 004 點擊此處瀏覽連結分割檔可以使用HJSplit 2.3工具合併
點擊此處在新視窗瀏覽實際大小的圖片HJSplit 2.3 檔案分割、合併、比對 繁體中文免安裝版 下載地址→
點擊此處瀏覽連結下載點這裡

, , ,

☜♥☞阿德 發表在 痞客邦 PIXNET 留言(0) 人氣()