2011最新香港 古天樂 劉青雲 《竊聽風雲2》高清BD-RMVB/國語中字【FS MU】
【劇 名】:竊聽風雲 2
【英 名】:OverHeard 2 
【地 區】:中國香港
【類 型】: 劇情 / 動作 / 犯罪 / 懸疑 / 驚悚
【語 言】:漢語普通話
【字 幕】:中文
【尺 寸】:1080 X 720
【時 長】:01:58:45
【格 式】:Rmvb-H264 Audio:RA
【容 量】:835MB
【格 式】:RMVB
【容 量】:771.22 MB
【上 映】:2011年8月18日 
【發 行】:博納影業集團/銀都機構有限公司 
【導 演】:麥兆輝、莊文強 
【編 劇】:麥兆輝、莊文強 
【監 製】:爾冬升
【主 演】:古天樂、劉青雲、吳彥祖、黃奕、葉璇等 

點擊此處在新視窗瀏覽實際大小的圖片

※劇情簡介※
  一宗平常的交通事故,香港知名證券商羅敏生(劉青雲 飾)的座駕被發現遭人竊聽,警方調查所得,***屬軍事用途,保安科介入案件,經總督察何智強(古天樂 飾)查出,竊聽者為一名退伍軍人司馬念祖(吳彥祖 飾),警匪雙方展開了連場追逐,頓時烽煙四起。何智強本以為只是一宗單純的勒索案件,沒想到在深入追查之下,竟揪出了一個名為「地主會」的神秘組織,傳說這「地主會」三十年來主宰了經濟體系的興衰成敗,而羅敏生及司馬念祖更與「地主會」有著敵友難分的關係。
  何智強被捲入其中,竟與羅敏生及司馬念祖連手策動一場驚心動魄的風暴。

※截  圖※
點擊此處在新視窗瀏覽實際大小的圖片
General
Complete name : 竊聽風雲2 OverHeard 2.rmvb
Format : RealMedia
File size : 771 MiB
Duration : 1h 58mn
Overall bit rate : 885 Kbps
Video #1
ID : 1
Format : RealVideo 4
Codec ID : RV40
Codec ID/Info : Based on AVC (H.264), Real Player 9
Duration : 1h 58mn
Bit rate : 821 Kbps
Width : 1 280 pixels
Height : 720 pixels
Display aspect ratio : 16:9
Frame rate : 23.000 fps
Resolution : 12 bits
Bits/(Pixel*Frame) : 0.039
Stream size : 697 MiB (90%)
Audio #0
ID : 0
Format : Cooker
Codec ID : cook
Codec ID/Info : Based on G.722.1, Real Player 6
Duration : 1h 58mn
Bit rate : 64.1 Kbps
Channel(s) : 2 channels
Sampling rate : 44.1 KHz
Resolution : 16 bits
Stream size : 54.4 MiB (7%)

下載教學步驟一:
進入下載畫面之後,移動到網頁右下方你會看到"普通下載"的按鈕,選擇按下"普通下載"等一下下會出現識別碼,依照顯示的識別碼輸入即可。

下載教學步驟二:
移動到網頁右上方你會看到倒數的秒數出現,等待秒數完成後按下"普通下載"即可下載。

PS:如果識別碼不清楚可以選擇更新輸入後確定等待約20秒即可下載,下載點不支援 訊雷、快車、BT..等等續傳軟體,請使用IE瀏覽器下載。

點擊此處瀏覽連結下載教學網頁圖片請點這裡
KMPlayer Ver.2.9.4.1436影音播放軟體 (內含加掛MP3插件 無所不播無所不放~綠色版免安裝版)→ 點擊此處瀏覽連結下載點這裡
FileServe◎Mipony 1.2.2免費空間下載加速工具 地址→ 點擊此處瀏覽連結下載點這裡
xun6◎Mipony 1.2.2免費空間下載加速工具 地址→ 點擊此處瀏覽連結下載點這裡
-----------------------------------------------------------------
2011最新香港 古天樂 劉青雲 《竊聽風雲 2 OverHeard 2》高清BD-RMVB/國語中字
----------------------------------------------------------------- 
點擊此處瀏覽連結點擊此處注冊後可以免費得到一個500GB的空間獲得高速下載通道: 
點擊此處瀏覽連結掛機網賺 20dollars2surf,全自動衝浪掛機也可賺錢 點擊此處瀏覽連結※內附完整教學圖※
點擊此處在新視窗瀏覽實際大小的圖片
BD-720P [RMVB]
< 《竊聽風雲 2 OverHeard 2》下載連結資料夾 >
點擊此處在新視窗瀏覽實際大小的圖片
點擊此處瀏覽連結下載點這裡
Folder link: 點擊此處瀏覽連結http://www.fileserve.com/list/jxeBJPE
點擊此處在新視窗瀏覽實際大小的圖片竊聽風雲 2 OverHeard 2 2011 點擊此處瀏覽連結http://www.fileserve.com/file/FY3QEkr

, , ,

☜♥☞阿德 發表在 痞客邦 PIXNET 留言(0) 人氣()