2011年TVB最新熱播劇集《九江十二坊》720P【高清TV粵語中字】
【劇 名】:九江十二坊
【英 名】:River Of Wine
【監 制】:黃偉聲
【編 導】:何樂然、陳維冠、黃琛喻
【編 審】:阮少娜、劉彩雲
【日 期】:2011年08月29日-2011年9月30日
【製 作】:2010年12月-2011年3月 
【播出時間】:星期一至五 8:30PM 翡翠台、8:30PM 高清翡翠台
【首播日期】:2011年08月29日
【類 型】:清裝釀酒劇情 
【製 作】:香港電視廣播有限公司 
【集 數】:25集
【接 檔】:紫禁驚雷 ←→上一檔:8月26日 / 下一檔:10月3日 ←→ 荃加福祿壽探案
【主 演】:薛家燕 (飾關惠蘭)、林保怡 (飾宋正堯)、陳錦鴻 (飾梁正匡)、鍾嘉欣 (飾宋子澄)、江美儀 (飾宋丁家碧)、敖嘉年 (飾宋子駿)、馬賽 (飾曾郁芳)、劉江 (飾曾健樑)、樂瞳 (飾梁秀妍)、林子善 (飾朱阿牛)
【語 言】:粵語
【字 幕】:中文
【影片大小】:1.35 GB
【官方網站】:點擊此處瀏覽連結http://programme.tvb.com/drama/riverofwine/
【維基百科】:點擊此處瀏覽連結http://zh.wikipedia.org/wiki/九江十二坊
【播 放】:高清播放與具體劇情介紹 
點擊此處在新視窗瀏覽實際大小的圖片

點擊此處在新視窗瀏覽實際大小的圖片
劇情簡介
千年以來,酒見證中國人的生老病死,悲歡離合,三個兄弟的恩怨情仇,競爭角力,亦正圍繞酒而開始……
梁家本為小康之家,過著樂也融融的生活,長子梁正堯(林保怡飾)在九江首富宋鼎天(張國強飾)經營的酒坊「聚隆坊」打工,並深得鼎天信任,無奈二十年前的一場天災,一遭人禍,竟徹底改寫了梁、宋兩家人的命運。

為家犧牲 慘遭誤解
一場火災,令正堯家園盡毀,舉家流離失所;與此同時,宋家也遭逢船難,鼎天正室、二妾及兩名女兒不幸遇害,獨子宋子駿(敖嘉年飾)失蹤,只遺下幼女宋子澄(鍾嘉欣飾),和三妾丁家碧(江美儀飾),鼎天大受打擊,一病不起,臨終前提出以付出大筆巨款,將正堯過繼為宋家兒子,為他守護家業和撫養幼女子澄成人,正堯為了幫助家中度過難關,也因為同情鼎天的遭遇,遂毅然答應鼎天,成為鼎天的過繼子。
正堯成為聚隆坊的當家後,一直覬覦宋家家財的堂伯宋濤(郭峰飾)對他諸多留難,更誣衊其母關惠蘭(薛家燕飾)拿取宋家的金子,正堯為保惠蘭的清白,忍痛當眾和梁家劃清界線,令祖父梁秋(余子明飾)和二弟梁正匡(陳錦鴻飾)認定他是個貪圖富貴、冷血無情的忤逆子,憤然與他決裂,以後不相往還,正堯忍辱負重。

兄弟怨恨 難以化解

二十年後,正堯將酒坊經營得有聲有色,更成為酒業商會主席。與此同時,正匡決意經營酒坊,正式開展釀製梁家酒的事業,欲證明自己可以白手興家,出人頭地,絕不遜於攀附富貴的兄長。惠蘭為免兄弟二人成為競爭對手,勸諫正匡,可惜正匡一意孤行。
然而,一個人的出現,為宋家帶來重大衝擊,他就是失蹤了廿年的宋家長子子駿。正堯喜見子駿重返宋家,決用心栽培子駿,期望將酒坊大業早日交還給他,可是子駿對酒業毫無認識,一時未敢委以重任。子駿生性多疑,加上受到宋濤和貪官知縣曾健樑(劉江飾)教唆,認定正堯有意獨攬大權,對他充滿敵意,令二人嫌隙日深。

為救義妹 交出大權

宋家二小姐子澄天生長短腳,正堯受鼎天臨危授命,努力為子澄物色可付託終身的好男人入贅宋家,於是安排相親,卻被正匡誤打誤撞破壞了,更讓子澄的殘障曝露於人前。婚事告吹的子澄,大受打擊,竟離家出走,離開九江。時正匡因洽購酒莊一事出了岔子而要南下,二人在路上相遇。因緣際會,子澄竟因而重拾自信,更和正匡成為無所不談的知己,二人不知不覺間,漸滋長出愛情,為梁、宋兩家鬥爭埋下暗湧。
正匡、子澄戀情曝光,正匡不要子澄受委屈,向宋家提親,子駿即大力阻撓,決不再容許多一個梁家人入侵宋家。而正堯亦質疑一直痛恨宋家的正匡對子澄的心意,對婚事有所保留,令子澄情義兩難。為了不再加深三人的矛盾,子澄欲和正匡斬斷情絲,更不惜順從子駿的意思,下嫁另一酒莊少東。正堯終被二人真情打動,決以交出宋家當家之位作為交換條件,要子駿成全二人的婚事。

誤墜圈套 兄弟援手

自此,子駿手握宋家大權,眼見正匡的梁家酒銷路急升,並計劃將酒外銷,成績有拋離宋家酒坊之勢。子駿深深不忿,為了和正匡在商場上爭逐,也有樣學樣,欲以外銷酒發圍。子駿將心意告知紅顏知己曾郁芳(馬賽飾),而郁芳為助子駿夢想成真,向父親健樑求助,讓健樑為他疏通關卡,又以苛刻的條款向銀號借得巨款,務求以高價搶購原料,準備大量外銷宋家酒,奪取正匡的生意。
可惜的是,子駿懵然不知這是健樑設下的圈套,直至子駿購入原料,千金散盡,才知悉當日取得的外銷令無效。子駿夢想成空,並欠下巨債,頃刻間便將宋家祖業敗壞。子駿誤以為郁芳出賣自己,萬念俱灰下萌輕生之意,幸得惠蘭及時勸止,帶他回梁家。原來正堯眼見子駿少不更事,早已暗中部署,而正匡也不計前嫌,向子駿伸出了援手,子駿痛定思痛,決心重建宋家家業。

挺身反抗 陷入險境

此時健樑得寸進尺,竟下令要低價收回眾酒坊之地,令酒商面臨前所未有的困境,正堯決意挺身而出,帶領酒商對抗健樑的惡行,令健樑一時難以招架,而健樑為了打擊堯,竟揭破正堯的一個秘密,讓正堯陷入險境……。

人物關係圖↓
點擊此處在新視窗瀏覽實際大小的圖片

點擊此處瀏覽連結※人物詳細介紹※

點擊此處瀏覽連結※精采片段影片※

※劇  照※ 
點擊此處在新視窗瀏覽實際大小的圖片

點擊此處在新視窗瀏覽實際大小的圖片

點擊此處在新視窗瀏覽實際大小的圖片

點擊此處在新視窗瀏覽實際大小的圖片

※截  圖※
點擊此處在新視窗瀏覽實際大小的圖片
※影片格式資訊※
General
Complete name : 九江十二坊.River.Of.Wine.720P.E01.mkv
Format : Matroska
File size : 1.35 GiB
Duration : 44mn 11s
Overall bit rate : 4 386 Kbps
Encoded date : UTC 2011-08-30 03:23:28
Writing application : mkvmerge v3.3.0 ('Language') built on Mar 24 2010 14:59:24
Writing library : libebml v0.8.0 + libmatroska v0.9.0
Video #1
ID : 1
Format : AVC
Format/Info : Advanced Video Codec
Format profile : High@L3.1
Format settings, CABAC : Yes
Format settings, ReFrames : 5 frames
Muxing mode : Container profile=Unknown@3.1
Codec ID : V_MPEG4/ISO/AVC
Duration : 44mn 11s
Bit rate : 3 915 Kbps
Nominal bit rate : 3 999 Kbps
Width : 1 280 pixels
Height : 720 pixels
Display aspect ratio : 16:9
Frame rate : 25.000 fps
Resolution : 24 bits
Colorimetry : 4:2:0
Scan type : Progressive
Bits/(Pixel*Frame) : 0.170
Stream size : 1.21 GiB (89%)
Writing library : x264 core 116 r2037 f8ebd4a
Encoding settings : cabac=1 / ref=5 / deblock=1:-3:-3 / analyse=0x3:0x113 / me=umh / subme=7 / psy=1 / psy_rd=1.00:0.00 / mixed_ref=1 / me_range=16 / chroma_me=1 / trellis=1 / 8x8dct=1 / cqm=0 / deadzone=21,11 / fast_pskip=0 / chroma_qp_offset=-2 / threads=6 / sliced_threads=0 / nr=0 / decimate=0 / interlaced=0 / bluray_compat=0 / constrained_intra=0 / bframes=6 / b_pyramid=2 / b_adapt=1 / b_bias=0 / direct=3 / weightb=1 / open_gop=0 / weightp=2 / keyint=250 / keyint_min=25 / scenecut=40 / intra_refresh=0 / rc_lookahead=40 / rc=2pass / mbtree=1 / bitrate=3999 / ratetol=1.0 / qcomp=0.60 / qpmin=10 / qpmax=51 / qpstep=4 / cplxblur=20.0 / qblur=0.5 / vbv_maxrate=14000 / vbv_bufsize=14000 / nal_hrd=none / ip_ratio=1.40 / aq=1:1.00
Language : English
Audio #2
ID : 2
Format : AC-3
Format/Info : Audio Coding 3
Codec ID : A_AC3
Duration : 44mn 11s
Bit rate mode : Constant
Bit rate : 384 Kbps
Channel(s) : 6 channels
Channel positions : Front: L C R, Surround: L R, LFE
Sampling rate : 48.0 KHz
Stream size : 121 MiB (9%)
Title : Cantonese(粵語)
Language : Chinese
Text #3
ID : 3
Format : UTF-8
Codec ID : S_TEXT/UTF8
Codec ID/Info : UTF-8 Plain Text
Title : CHT(繁體中文)
Language : Chinese
Text #4
ID : 4
Format : UTF-8
Codec ID : S_TEXT/UTF8
Codec ID/Info : UTF-8 Plain Text
Title : CHS(簡体中文)
Language : Chinese

下載教學步驟一:
進入下載畫面之後,移動到網頁右下方你會看到"普通下載"的按鈕,選擇按下"普通下載"等一下下會出現識別碼,依照顯示的識別碼輸入即可。

下載教學步驟二:
移動到網頁右上方你會看到倒數的秒數出現,等待秒數完成後按下"普通下載"即可下載。

PS:如果識別碼不清楚可以選擇更新輸入後確定等待約20秒即可下載,下載點不支援 訊雷、快車、BT..等等續傳軟體,請使用IE瀏覽器下載。

點擊此處瀏覽連結下載教學網頁圖片請點這裡
[b]KMPlayer Ver.2.9.4.1436影音播放軟體 (內含加掛MP3插件 無所不播無所不放~綠色版免安裝版)→[/b] 點擊此處瀏覽連結下載點這裡
[b]FileServe◎Mipony 1.2.2免費空間下載加速工具 地址→[/b] 點擊此處瀏覽連結下載點這裡
[b]xun6◎Mipony 1.2.2免費空間下載加速工具 地址→[/b] 點擊此處瀏覽連結下載點這裡
-----------------------------------------------------------------
2011年TVB最新熱播劇集《九江十二坊 River Of Wine》720P【高清TV粵語中字】
----------------------------------------------------------------- 
點擊此處瀏覽連結點擊此處注冊後可以免費得到一個500GB的空間獲得高速下載通道: 
點擊此處瀏覽連結可賺錢 點擊此處瀏覽連結※內附完整教學圖※
點擊此處在新視窗瀏覽實際大小的圖片
HDTV-720P [MKV]
< 九江十二坊 第01集至25集[所有集數] 下載連結資料夾 >
點擊此處在新視窗瀏覽實際大小的圖片
點擊此處瀏覽連結下載點這裡
九江十二坊 所有集數下載連結資料夾 
點擊此處在新視窗瀏覽實際大小的圖片Folder link:
點擊此處在新視窗瀏覽實際大小的圖片九江十二坊 River Of Wine 點擊此處瀏覽連結http://www.fileserve.com/list/nsx5JEQ

, , , ,

☜♥☞阿德 發表在 痞客邦 PIXNET 留言(0) 人氣()