2010年TVB最新熱播劇集《翻叮一族》720P【高清TV粵語中字】【FS MU】
【劇 名】:翻叮一族
【英 名】:The Comeback Clan
【監 制】:關永忠
【編 審】:蔡淑賢、李綺華、阮少娜 
【編 劇】:陳寶華、張宗齊、方慧兒、關皓月、邱福慶
【編 導】:黃國輝、林子欣、許瑞平、錢穎芝
【日 期】:2010年9月11日-10月15日
【製 作】:2009年9月-11月 
【製作統籌】:簡美施
【助理編導】:陳賢俊、郭飛鴻
【播出時間】:星期一至五 8:30PM 翡翠台、9:30PM 高清翡翠台
【首播日期】:2010年9月20日
【類 型】:時裝處境劇 
【製 作】:香港電視廣播有限公司 
【集 數】:20集
【主 演】:伍詠薇 (飾利蓉姿)、唐詩詠 (飾戴瑩莉)、夏雨 (飾戴顧東)、商天娥 (飾崔喜喜)、敖嘉年 (飾危賜安)、許紹雄 (飾葉慕昇)、陳鍵鋒 (飾葉積良)、楊思琦 (飾利蓉珊)
【語 言】:粵語
【字 幕】:中文
【影片大小】:1.03 GB
【官方網站】:點擊此處瀏覽連結http://programme.tvb.com/drama/thecomebackclan/
【維基百科】:點擊此處瀏覽連結http://zh.wikipedia.org/wiki/翻叮一族
【播 放】:高清播放與具體劇情介紹 
點擊此處在新視窗瀏覽實際大小的圖片

點擊此處在新視窗瀏覽實際大小的圖片

劇情簡介
金融海嘯下,有人生意不景,有人失業,有人投資失利輸身家,有人因財失義感情破裂,有人患難見真情,透過一間食肆,兩個家庭,三個股東如何面對金融海嘯的故事,帶出逆境自強,團結就是力量的正面信息。

※茶餐廳三股東 各懷鬼胎
戴顧東(夏雨飾)是老牌茶餐廳「味食園」的老闆,憑著親手調製的絲襪奶茶,迄立不倒數十年,不料碰上百年一遇的金融海嘯,生意大跌,面臨倒閉!女兒戴瑩莉(唐詩詠飾)年前外國畢業回港,任職公關,正和大提琴手葉積良(陳鍵鋒飾)拍拖。積良為人善良但懦弱,顧東並不喜歡他。
積良父親葉慕昇(許紹雄飾)原是會所餐廳副經理,但因金融海嘯被裁。顧東誤以為慕昇是隱形富豪,騙慕昇入股茶餐廳。到慕昇發現茶餐廳經營困難時,已拿不回錢,對顧東懷恨。慕昇遂和兒子搬入戴家暫住,兩老遂展開大鬥法,可憐積良和瑩莉受累成兩老磨心。
慕昇大手投資迷債成苦主,遂組成聯盟向銀行追討。顧東意外捲入追討行動,和銀行代表利蓉姿(伍詠薇飾)衝突,最後蓉姿被銀行當代罪羔羊辭退。那知蓉姿發現過身父親昔日是顧東合夥人,更把股份留給她,又誤會當顧年東曾經挑撥父母間感情兼且騙取父親大部分股份,於是插手茶餐廳以望翻身及報仇。

※私房菜大翻身 暗潮洶湧
味食園生意仍舊慘淡,蓉姿提出將絲襪奶茶以罐裝出售,並成功取得危氏集團的合作生產。蓉姿為了取得絲襪奶茶的秘方,與顧東、慕昇發生衝突,令散工崔喜喜(商天娥飾)意外失憶。三人惟有騙她說慕昇是她的丈夫,顧東則是其表哥。
蓉姿並沒有放棄向顧東報仇之心,而顧東亦一心想趕霸道的蓉姿離開茶餐廳,彼此爾虞我詐,各懷鬼胎。顧東被設計下丟了茶餐廳,萬念俱灰下竟去跳樓……另一方面,蓉姿發現自己誤會了顧東報錯了仇,內疚不已。味食園被危氏集團收購,慕昇因喜喜的關係,成為話事人;原來喜喜是危氏集團老闆危振滄(駱應鈞飾)的前妻。慕昇乘機向顧東追討欠款,積良不值其所為而離家。
喜喜突然恢復記憶,明白所謂幸福家庭只是假局,和慕昇分手。顧東想通後決定開設私房菜,找來喜喜幫助再戰江湖。在蓉姿暗中幫忙下,喜喜的「火山炒飯」更贏得口碑。另一方面,振滄因病由養子危賜安(敖嘉年飾)接掌危氏集團大權,過橋抽板,將慕昇及一班舊夥計逐出茶餐廳。顧東等見慕昇誠意改過,既往不究,而喜喜也明白慕昇的情意;蓉姿也驚覺顧東愛上自己。眾人看似盡解前怨,團結一致,仍暗潮洶湧。

※一蚊租地計劃 逆境自強
富商陳伯(秦煌飾)推出一元租地計劃,顧東等欲以低價租下大片空地開大笪地式大牌檔,幫助舊夥計及飲食業員工逆境自強。振滄突然被襲昏迷,顧東被警方控告……租地計劃有礙危氏發展豪宅,賜安決心打跨顧東一夥人,蓉姿更在此時倒戈相向……另一方面,賜安使計令積良和瑩莉分手,瑩莉轉投賜安懷抱……
眾人事業和感情,都到了決定性關頭!究竟大笪地的計劃能否繼續?一眾草根能否打敗大財團?瑩莉和積良、慕昇和喜喜、顧東和蓉姿,是否可以有情人終成眷屬?

人物關係圖↓

※劇  照※ 
點擊此處在新視窗瀏覽實際大小的圖片

點擊此處在新視窗瀏覽實際大小的圖片

點擊此處在新視窗瀏覽實際大小的圖片

點擊此處在新視窗瀏覽實際大小的圖片

※截  圖※
點擊此處在新視窗瀏覽實際大小的圖片
※影片格式資訊※
General
Complete name : 翻叮一族.The.Comeback.Clan.720p.E01.mkv
Format : Matroska
File size : 1.04 GiB
Duration : 43mn 51s
Overall bit rate : 3 390 Kbps
Encoded date : UTC 2010-09-20 15:18:30
Writing application : mkvmerge v2.9.8 ('C'est le bon') built on Aug 13 2009 12:49:06
Writing library : libebml v0.7.7 + libmatroska v0.8.1
Video #1
ID : 1
Format : AVC
Format/Info : Advanced Video Codec
Format profile : Main@L3.1
Format settings, CABAC : Yes
Format settings, ReFrames : 2 frames
Muxing mode : Container profile=Unknown@3.1
Codec ID : V_MPEG4/ISO/AVC
Duration : 43mn 51s
Bit rate : 2 939 Kbps
Nominal bit rate : 3 000 Kbps
Width : 1 280 pixels
Height : 720 pixels
Display aspect ratio : 16:9
Frame rate : 25.000 fps
Resolution : 24 bits
Colorimetry : 4:2:0
Scan type : Progressive
Bits/(Pixel*Frame) : 0.128
Stream size : 922 MiB (87%)
Title : Move(影片軌)
Writing library : x264 core 98 r1649 c54c47d
Encoding settings : cabac=1 / ref=1 / deblock=1:0:0 / analyse=0x1:0x131 / me=hex / subme=4 / psy=1 / psy_rd=0.00:0.00 / mixed_ref=0 / me_range=16 / chroma_me=1 / trellis=0 / 8x8dct=0 / cqm=0 / deadzone=21,11 / fast_pskip=1 / chroma_qp_offset=0 / threads=6 / sliced_threads=0 / nr=0 / decimate=1 / interlaced=0 / constrained_intra=0 / bframes=3 / b_pyramid=0 / b_adapt=1 / b_bias=0 / direct=1 / weightb=1 / weightp=2 / keyint=250 / keyint_min=25 / scenecut=40 / intra_refresh=0 / rc=abr / mbtree=0 / bitrate=3000 / ratetol=1.0 / qcomp=0.60 / qpmin=10 / qpmax=51 / qpstep=4 / ip_ratio=1.40 / pb_ratio=1.30 / aq=1:1.00
Language : Chinese
Audio #2
ID : 2
Format : AC-3
Format/Info : Audio Coding 3
Codec ID : A_AC3
Duration : 43mn 51s
Bit rate mode : Constant
Bit rate : 384 Kbps
Channel(s) : 6 channels
Channel positions : Front: L C R, Surround: L R, LFE
Sampling rate : 48.0 KHz
Video delay : 9ms
Stream size : 120 MiB (11%)
Title : Cantonese(粵語)
Language : Chinese
Text #3
ID : 3
Format : UTF-8
Codec ID : S_TEXT/UTF8
Codec ID/Info : UTF-8 Plain Text
Title : CHT(繁體中文)
Language : Chinese

下載教學步驟一:
進入下載畫面之後,移動到網頁右下方你會看到"普通下載"的按鈕,選擇按下"普通下載"等一下下會出現識別碼,依照顯示的識別碼輸入即可。

下載教學步驟二:
移動到網頁右上方你會看到倒數的秒數出現,等待秒數完成後按下"普通下載"即可下載。

PS:如果識別碼不清楚可以選擇更新輸入後確定等待約20秒即可下載,下載點不支援 訊雷、快車、BT..等等續傳軟體,請使用IE瀏覽器下載。

點擊此處瀏覽連結下載教學網頁圖片請點這裡
KMPlayer Ver.2.9.4.1436影音播放軟體 (內含加掛MP3插件 無所不播無所不放~綠色版免安裝版)→ 點擊此處瀏覽連結下載點這裡
FileServe◎Mipony 1.2.2免費空間下載加速工具 地址→ 點擊此處瀏覽連結下載點這裡
xun6◎Mipony 1.2.2免費空間下載加速工具 地址→ 點擊此處瀏覽連結下載點這裡
-----------------------------------------------------------------
2010年TVB最新熱播劇集《翻叮一族 The Comeback Clan》720P【高清TV國粵語中字】
----------------------------------------------------------------- 
點擊此處瀏覽連結點擊此處注冊後可以免費得到一個500GB的空間獲得高速下載通道: 
點擊此處瀏覽連結掛機網賺 20dollars2surf,全自動衝浪掛機也可賺錢 點擊此處瀏覽連結※內附完整教學圖※
點擊此處在新視窗瀏覽實際大小的圖片
HDTV-480P [RMVB]
< 翻叮一族 The Comeback Clan 第01集至20集[此劇全部集數 20集] 下載連結資料夾 >
點擊此處在新視窗瀏覽實際大小的圖片
點擊此處瀏覽連結下載點這裡
翻叮一族 The Comeback Clan 所有集數下載連結資料夾 
點擊此處在新視窗瀏覽實際大小的圖片Folder link:
點擊此處在新視窗瀏覽實際大小的圖片TVB 2010 翻叮一族 The Comeback Clan 點擊此處瀏覽連結http://www.fileserve.com/list/49rTtpm

, , ,

☜♥☞阿德 發表在 痞客邦 PIXNET 留言(0) 人氣()