1999年TVB最新熱播劇集《千里姻緣兜錯圈》480P【高清TV國粵語中字】【FS MU】
【劇 名】:千里姻緣兜錯圈
【英 名】:A Matter of Business
【監 制】:王心慰
【編 審】: 
【日 期】:1999年5月10日—6月4日
【製 作】:1998年 
【播出時間】:星期一至五 8:00PM 翡翠台、8:30PM 高清翡翠台
【首播日期】:1999年5月10日
【類 型】:時裝處境喜劇 
【製 作】:香港電視廣播有限公司 
【集 數】:20集
【主 演】:蔡少芬、錢嘉樂、梁榮忠、梅小惠、郭少芸、鄺文珣、馬德鐘
【語 言】:粵語/國語
【字 幕】:中文
【影片大小】:350.09 MB
【官方網站】:點擊此處瀏覽連結http://programme.tvb.com/drama/AMatterofBusiness/
【維基百科】:點擊此處瀏覽連結http://zh.wikipedia.org/wiki/千里姻緣兜錯圈
【播 放】:高清播放與具體劇情介紹 
點擊此處在新視窗瀏覽實際大小的圖片

點擊此處在新視窗瀏覽實際大小的圖片

點擊此處在新視窗瀏覽實際大小的圖片
※演 員 表※
◎主要演員
蔡少芬 飾 黃玉芬
錢嘉樂 飾 樂 文(Man)
鄭敬基 飾 林祖光(Joe)
梅小惠 飾 齊學琴(琴姐)
馬德鐘 飾 賀家明(Ken)
郭少芸 飾 戴莉安(Diary Ann)
梁榮忠 飾 賀家寶(Sam)
鄺文珣 飾 樂 惠
鄧兆尊 飾 齊學得
劉家輝 飾 謝蝦(蝦叔)
陳建穎 飾 佐仁俊(Boy George)
郭 峰 飾 樂 天
陳秀珠 飾 尤雲英

◎其他演員
夏韶聲 飾 楊志超
盧慶輝 飾 余至春
劉家聰 飾 Office boy
彭子晴 飾 Lisa
黃德斌 飾 Peter Lo
周 驄 飾 賀兆堂

劇情簡介
黃玉芬(蔡少芬飾)個性率直,在公司一場權力鬥爭中,被利用陷害其上司樂文(錢嘉樂飾),文因此遭降職, 視芬為仇人。芬家開辦的雜貨店,因業主光(鄭敬基飾)要收樓而面臨倒閉。芬姐琴(梅小惠飾)欲親近光,令其打消收樓念頭,不料奸計被文揭破,芬、文更勢成水火!正是冤家路窄,芬弟得(鄧兆尊飾)與文妹惠(鄺文飾)相戀,因惠珠胎暗結,芬竟要與文成親家! 
另一方面,文因女友安(郭少芸飾)轉投太子爺寶(梁榮忠飾)懷抱,大受打擊,一蹶不振。芬見狀安慰,二人漸化敵為友。文知芬暗戀寶兄明(馬德鍾飾),遂撮合二人。豈料,當芬計劃與明結婚之際,竟發現原來文已愛上自己!究竟芬最終如何抉擇呢? 
本性率直,口直心快的黃玉芬很容易得罪別人﹐她不喜歡戴著假面具來做人﹐這是她的優點同樣亦是她的缺點。二十多歲的她還沒拖拍﹐但她絕對不會因想拍拖而隨便找個男人。玉芬對愛情很執著﹐她多年的暗戀對像賀家明重現在眼前﹐她願意為他默默付出和等待﹐可惜家明不是她的真命天子。而一直在她身邊支援和鼓勵她的樂文﹐卻得不到她的芳心﹐到她發現原來白馬王子一直在自己身旁的時候她已經兜了很大的圈子了。

故事大綱

人物關係圖↓

※劇  照※ 
點擊此處在新視窗瀏覽實際大小的圖片

點擊此處在新視窗瀏覽實際大小的圖片

點擊此處在新視窗瀏覽實際大小的圖片

點擊此處在新視窗瀏覽實際大小的圖片

※截  圖※
點擊此處在新視窗瀏覽實際大小的圖片
※影片格式資訊※
General
Complete name : tvb 1999 千里姻緣兜錯圈.A Matter of Business EP01.rmvb
Format : RealMedia
File size : 350 MiB
Duration : 1h 26mn
Overall bit rate : 625 Kbps
Performer : bush
Video #1
ID : 1
Format : RealVideo 4
Codec ID : RV40
Codec ID/Info : Based on AVC (H.264), Real Player 9
Duration : 1h 26mn
Bit rate : 561 Kbps
Width : 512 pixels
Height : 384 pixels
Display aspect ratio : 4:3
Frame rate : 25.000 fps
Resolution : 12 bits
Bits/(Pixel*Frame) : 0.114
Stream size : 346 MiB (99%)
Audio #0
ID : 0
Format : Cooker
Codec ID : cook
Codec ID/Info : Based on G.722.1, Real Player 6
Duration : 1h 26mn
Bit rate : 64.1 Kbps
Channel(s) : 2 channels
Sampling rate : 44.1 KHz
Resolution : 16 bits
Stream size : 39.5 MiB (11%)

下載教學步驟一:
進入下載畫面之後,移動到網頁右下方你會看到"普通下載"的按鈕,選擇按下"普通下載"等一下下會出現識別碼,依照顯示的識別碼輸入即可。

下載教學步驟二:
移動到網頁右上方你會看到倒數的秒數出現,等待秒數完成後按下"普通下載"即可下載。

PS:如果識別碼不清楚可以選擇更新輸入後確定等待約20秒即可下載,下載點不支援 訊雷、快車、BT..等等續傳軟體,請使用IE瀏覽器下載。

點擊此處瀏覽連結下載教學網頁圖片請點這裡
KMPlayer Ver.2.9.4.1436影音播放軟體 (內含加掛MP3插件 無所不播無所不放~綠色版免安裝版)→ 點擊此處瀏覽連結下載點這裡
FileServe◎Mipony 1.2.2免費空間下載加速工具 地址→ 點擊此處瀏覽連結下載點這裡
xun6◎Mipony 1.2.2免費空間下載加速工具 地址→ 點擊此處瀏覽連結下載點這裡
-----------------------------------------------------------------
1999年TVB最新熱播劇集《千里姻緣兜錯圈》480P【高清TV國粵語中字】
----------------------------------------------------------------- 
點擊此處瀏覽連結點擊此處注冊後可以免費得到一個500GB的空間獲得高速下載通道: 
點擊此處瀏覽連結掛機網賺 20dollars2surf,全自動衝浪掛機也可賺錢 點擊此處瀏覽連結※內附完整教學圖※
點擊此處在新視窗瀏覽實際大小的圖片
HDTV-480P [RMVB]
< 千里姻緣兜錯圈 第01集至20集[此劇全部集數 20集] 下載連結資料夾 >
點擊此處在新視窗瀏覽實際大小的圖片
點擊此處瀏覽連結下載點這裡
千里姻緣兜錯圈 所有集數下載連結資料夾 
點擊此處在新視窗瀏覽實際大小的圖片Folder link:
點擊此處在新視窗瀏覽實際大小的圖片千里姻緣兜錯圈粵語版 點擊此處瀏覽連結http://www.fileserve.com/list/qcfacgp
點擊此處在新視窗瀏覽實際大小的圖片千里姻緣兜錯圈國語版 點擊此處瀏覽連結http://www.fileserve.com/list/qcfacgp

, , ,

☜♥☞阿德 發表在 痞客邦 PIXNET 留言(0) 人氣()