2011最新中國近代歷史劇情大片《建黨偉業》高清RMVB/國語中字【FS MU】
【劇 名】:建黨偉業
【英 名】:Beginning of the Great Revival
【地 區】:中國
【類 型】:劇情片
【語 言】:漢語普通話
【字 幕】:中文
【尺 寸】:720 X 416
【時 長】:01:40:27
【格 式】:Rmvb-H264 Audio:RA-cook
【格 式】:RMVB
【容 量】:569MB
【上 映】:中國大陸:2011年6月15日、中國香港:2011年6月23日、北美/澳洲/紐西蘭:2011年6月24日
【發 行】:中國電影集團公司
【導 演】:黃建新、韓三平
【副 導】:沈東、陸川
【演 員】:吳宇森、郭濤、聶遠、馬少華、張震、一真、任達華、吳彥祖....
【 IMDB】:點擊此處瀏覽連結http://www.imdb.com/title/tt1699513/
【官方網站】:點擊此處瀏覽連結http://www.jiandangweiye2011.com/
【維基百科】:點擊此處瀏覽連結http://zh.wikipedia.org/wiki/建黨偉業

點擊此處在新視窗瀏覽實際大小的圖片

點擊此處在新視窗瀏覽實際大小的圖片 

點擊此處在新視窗瀏覽實際大小的圖片

※劇情簡介※
《建黨偉業》是一部於2011年上映的中國歷史電影。2010年8月18日,在中影懷柔影視基地開機拍攝。本片是為慶祝中國共產黨建黨九十周年而製作的獻禮影片[1]。該片沿用《建國大業》導演客串執導的做法。海外部分由李少紅執導,五四時期部分由陸川執導,戰爭場面由沈東執導。
電影從1911年辛亥革命爆發開始一直敘述至1921年中國共產黨第一次全國代表大會召開為止共10年間中國所發生的一系列重大歷史事件,大體上由民初動亂、五四運動及中共建黨三部分劇情組成。內容包括中共建黨的歷史原因以及毛澤東、陳獨秀、李大釗等中共創黨領袖選擇並確立共產主義政治信仰的歷程。
日前,《建黨偉業》片方再次公佈一組新文化運動中北大辯論重頭戲的劇照,馮遠征、張嘉譯、吳彥祖、辜鴻銘、王學圻、王力宏、秦嵐等人聯手演繹了一場沒有硝煙的“戰爭”,幾位大師的急智與口才更讓這場“北大內戰”變得精彩紛呈。 

點擊此處在新視窗瀏覽實際大小的圖片
※電影《建黨偉業》主要演員對照表 

張謇·任達華(中國香港) 
陳其美·聶遠 
陶成章·郭濤 
孫文·馬少驊 
蔣介石·張震(中國台灣) 
保鏢·一真 
毛澤東·劉燁 
剃頭匠·吳軍 
彭友勝·周小斌 
伍廷芳·王奎榮 
唐紹儀·侯勇 
袁世凱·周潤發(中國香港) 
隆裕太后·范冰冰 
載灃·週一圍 
小德張·趙亮 
宋教仁·張涵予 
蔡元培·王學圻 
馮國璋·馮鞏 
黃興·洪劍濤 
于右任·郭曉冬 
廖仲愷·國永振 
張勳·陶澤如 
徐世昌·劉文治 
楊度·方中信(中國香港) 
黎元洪·范偉 
段祺瑞·趙本山 
蔡鍔·劉德華(中國香港) 
蔣百里·柳雲龍 
日置益·三浦研一(日本) 
陸徵祥·林永健 
曹汝霖·黃磊 
陳獨秀·馮遠征 
李大釗·張嘉譯 
袁克定·李菁 
楊昌濟·李雪健 
楊開慧·李沁 
小鳳仙·Angelababy(中國香港) 
宋慶齡·董潔 
許崇智·王新軍 
朱德·廖凡 
吳佩孚·呂良偉(中國香港) 
一營長·范雷 
范源濂·梁家輝(中國香港) 
辜鴻銘·劉佩琦 
林森·吳宇森(中國香港) 
瑾太妃·劉濤 
康有為·劉勁 
蔡和森·潘粵明 
蕭子升·王柏傑(中國台灣) 
張國燾·李晨 
羅家倫·王力宏(中國台灣) 
胡適·吳彥祖(中國香港) 
蘇雪林·秦嵐 
黃淑儀·白冰 
蔡暢·范志博 
向警予·董璇 
梁啟超·張家輝(中國香港) 
顧維鈞·陳道明 
列寧·Sergey Barkovski(俄羅斯) 
陸小曼·車永莉 
方豪·林申 
許德珩·杜淳 
鄧中夏·祖峰 
謝紹敏·井柏然 
匡互生·包貝爾 
段芝貴·劉儀偉 
老警察·申軍誼 
喊冤女·愛新覺羅·啟星 
警長·杜志國 
章宗祥夫人·江珊 
章宗祥·果靜林 
曹汝霖父親·陳國星 
吳炳湘·舒耀瑄 
曹錕·劉利年 
劉仁靜·黃軒 
陳毅·鄧超 
工人甲·鄭昊 
工人乙·李澤鋒 
何叔衡·何平 
楊開智·楊洋 
周恩來·陳坤 
張若名·王珞丹 
郭隆真·劉婧 
楊以德·李誠儒 
監獄長·句號 
維經斯基·VITAS(俄羅斯) 
劉少奇·于曉光 
包惠僧·王學兵 
周佛海·張譯 
馮遠征、張嘉譯、王學圻三位實力戲骨加盟電影《建黨偉業》劇組,分別飾演陳獨秀、李大釗、蔡元培這三位建黨時期叱吒風雲的歷史人物,現場飆戲,讓人大呼過癮。 
王盡美·戚玉武(新加坡) 
鄧恩銘·張一山 
董必武·王丹戎 
陳潭秋·譚凱 
李漢俊·周傑 
李達·黃覺 
陳公博·佟瑞欣 
李勵莊·葉璇(中國香港) 
王會悟·周迅 
馬林·Gera Shchenko Andriyan(俄羅斯) 

你所不知道的《建黨偉業》
  建黨90週年獻禮影片《建黨偉業》將於15日在全國公映,該片雲集了華語電影圈的178位大牌,平均每分鐘就有幾位明星出來。昨日,該片導演黃建新攜張一山、陶澤如、劉儀偉、譚凱來蓉宣傳造勢。

周潤發變身袁世凱
  大背頭被剪成了寸頭
  在《建黨偉業》中,周潤發飾演袁世凱,說起為周潤發的化粧過程,黃樺說:“我們需要周潤發把頭髮剪成寸頭,因為周潤發的頭髮是大背頭,這也是我們不安的地方,如果周潤發不剪,那麼這一個袁世凱和歷史上的袁世凱就有很大差距。實際上,周潤發對這個人物的研究已經很深了,當我們提出來的時候,他很爽快地答應了,說剪頭沒有問題,所以我說好演員就是這個樣子的!”黃樺還稱,發哥在片場非常隨和,經常和工作人員開玩笑。

女演員變身革命者
  周迅董璇等要戴短髮頭套
  周迅、董潔、董璇,《建黨偉業》中也有不少女性角色,談起為這些女演員化粧的過程,黃樺說:“其實女演員的粧比較好化,我們查閱了大量資料,基本上當時的革命女性都是短髮。所以周迅、湯唯、董璇等女演員都是用短髮頭套,以體現那個時代的精神風貌。”
  黃樺表示,接下來會去湖南衛視參加一檔節目的錄製,通過《建黨偉業》這部戲,黃樺有了在成都開化粧培訓班的打算,“通過這個戲,我覺得要提高肖像粧的整體水準,化肖像粧確實很難,所以想培養一些新人。
黃樺透露,在《建黨偉業》拍攝現場有兩面“人物墻”,一面是劇中人物的原型黑白照片,一面是明星們的定粧照,“比如說扮演李大釗的張嘉譯來試粧的時候,比照李大釗的照片,我們發現張嘉譯的頭髮比較塌,而李大釗的頭髮是立起來的小寸頭,而且李大釗還戴眼鏡,我們特地去北京一家最老的眼鏡加工廠,找到為數不多的老師傅去還原當時的眼鏡。李大釗還有鬍子,所以我們也把李大釗的鬍子形狀畫下來,去做跟李大釗一模一樣的鬍子。”
  扮演段祺瑞的趙本山在化粧後滿意地說:“我還是很帥的嘛!”黃樺說:“我們把段祺瑞的照片和趙本山本人做一個比較,發現趙本山本人的眉毛是倒著的八字眉,所以我們把趙本山的眉形做了調整。”
※截  圖※
點擊此處在新視窗瀏覽實際大小的圖片
General
Complete name : 建黨偉業.Beginning.of.The.Great.Revival.rmvb
Format : RealMedia
File size : 569 MiB
Duration : 2h 0mn
Overall bit rate : 646 Kbps
Video #1
ID : 1
Format : RealVideo 4
Codec ID : RV40
Codec ID/Info : Based on AVC (H.264), Real Player 9
Duration : 2h 0mn
Bit rate : 601 Kbps
Width : 720 pixels
Height : 416 pixels
Display aspect ratio : 16:9
Frame rate : 25.000 fps
Resolution : 12 bits
Bits/(Pixel*Frame) : 0.080
Stream size : 518 MiB (91%)
Audio #0
ID : 0
Format : Cooker
Codec ID : cook
Codec ID/Info : Based on G.722.1, Real Player 6
Duration : 2h 0mn
Bit rate : 44.1 Kbps
Channel(s) : 2 channels
Sampling rate : 44.1 KHz
Resolution : 16 bits
Stream size : 38.0 MiB (7%)

下載教學步驟一:
進入下載畫面之後,移動到網頁右下方你會看到"普通下載"的按鈕,選擇按下"普通下載"等一下下會出現識別碼,依照顯示的識別碼輸入即可。

下載教學步驟二:
移動到網頁右上方你會看到倒數的秒數出現,等待秒數完成後按下"普通下載"即可下載。

PS:如果識別碼不清楚可以選擇更新輸入後確定等待約20秒即可下載,下載點不支援 訊雷、快車、BT..等等續傳軟體,請使用IE瀏覽器下載。

點擊此處瀏覽連結下載教學網頁圖片請點這裡
KMPlayer Ver.2.9.4.1436影音播放軟體 (內含加掛MP3插件 無所不播無所不放~綠色版免安裝版)→ 點擊此處瀏覽連結下載點這裡
FileServe◎Mipony 1.2.2免費空間下載加速工具 地址→ 點擊此處瀏覽連結下載點這裡
xun6◎Mipony 1.2.2免費空間下載加速工具 地址→ 點擊此處瀏覽連結下載點這裡
-----------------------------------------------------------------
2011最新中國近代歷史劇情大片《建黨偉業 Beginning of the Great Revival》
----------------------------------------------------------------- 
點擊此處瀏覽連結點擊此處注冊後可以免費得到一個500GB的空間獲得高速下載通道: 
點擊此處瀏覽連結掛機網賺 20dollars2surf,全自動衝浪掛機也可賺錢 點擊此處瀏覽連結※內附完整教學圖※
點擊此處在新視窗瀏覽實際大小的圖片
BD-720P [RMVB]
< 《建黨偉業 Beginning of the Great Revival》下載連結資料夾 >
點擊此處在新視窗瀏覽實際大小的圖片
點擊此處瀏覽連結下載點這裡
Folder link: 點擊此處瀏覽連結http://www.fileserve.com/list/jxeBJPE
點擊此處在新視窗瀏覽實際大小的圖片建黨偉業 Beginning of the Great Revival 2011 點擊此處瀏覽連結http://www.fileserve.com/file/RRDssFN

, , ,

☜♥☞阿德 發表在 痞客邦 PIXNET 留言(0) 人氣()