2011最新香港張柏芝鄭中基喜劇大片《無價之寶》高清BD-RMVB/國語中字【FS MU】
【劇 名】:無價之寶/冠軍寶貝之無價之寶
【英 名】:Treasure Hunt
【原 名】:Wu Jia Zhi Bao
【地 區】:中國香港
【類 型】:喜劇 
【語 言】:漢語普通話
【字 幕】:中文
【尺 寸】:1024 X 576
【時 長】:01:40:28
【格 式】:Rmvb-X264 Audio:AAC
【容 量】:835MB
【格 式】:RMVB
【容 量】:835MB
【出 品】:2011年9月8日 香港
【上 映】:2011年8月19日 中國
【發 行】:中國電影集團公司
【導 演】:王晶 Jing Wong、姜國民 Kwok-Man Keung
【主 演】:鄭中基 Ronald Cheng
      張柏芝 Cecilia Cheung
      林妙可 Miaoke Lin
      謝振軒 Lucas Tse
      邵兵 Bing Shao
      劉樺 Hua Liu
      周奇奇 Qiqi Zhou
      王晶 Jing Wong
      李丹妮 Danni Li
      釋延能 Yanneng Shi
      莊思敏 Jacquline Ch』ng
      鄭祖 Joe Cheng
      張珂源 Keyuan Zhang
      李國華 Kuo Hua Li
      鄭伊健 Ekin Cheng

點擊此處在新視窗瀏覽實際大小的圖片

點擊此處在新視窗瀏覽實際大小的圖片 

點擊此處在新視窗瀏覽實際大小的圖片 
※劇情簡介※
美女廣告導演江蕙妮(張柏芝飾)看似有著成功的事業,美滿的家庭,可愛的兒子(Lucas飾),而實際她急於拓展自己的事業,「女高男低」的家庭生活也讓她和老公路志明(鄭伊健飾)陰霾重重,隱憂暗暗。為了衝向事業的更高層次,工作狂人江蕙妮再次撇下老公和兒子,同好色風流的武打巨星高大龍(鄭中基飾)前往無名荒島拍攝廣告大片。
  無名島風光旖旎,景色怡人,攝制組的拍攝工作卻遭遇種種離奇事件,殊不知,他們從登上小島的那一刻,也在一步步地逼近險境。
  在一張年代久遠的藏寶圖的指引下,以眼鏡蛇(劉樺飾)為首的「五大禽獸」團伙也進入孤島,企圖尋找和挖掘寶藏並據為己有,然而他們卻被小島上的神秘人(邵兵飾)攪的不得安寧,狼狽不堪。藏寶圖的丟失徹底點燃了「五大禽獸」的怒火,他們認為攝制組在從中搗鬼,他們真正的目的不是拍攝廣告,而是尋找寶藏!一場針鋒相對的較量蓄勢待發……

張柏芝母子、鄭中基、邵兵、劉樺、林妙可等出演的《無價之寶》已於8月19日全國公映,影片溫情搞笑,是一部非常適合暑期一家人一起去看的電影類型。
《無價之寶》中,張柏芝有句台詞:「我們一家人在一起就是無價之寶。」在影片中其本意是一家人在一起的幸福比寶藏還要珍貴,但用來形容生活中的這個明星之家也恰如其分。4歲的Lucas作為名副其實的「星二代」,《無價之寶》又是他的電影處女作,片酬自然也不菲,雖然導演王晶稱自己用一根雪糕搞定了Lucas,其實在合約上,他的片酬折合成人民幣是80多萬元,已成為最貴童星。而且看過電影後,記者發現Lucas在片中和張柏芝溫馨互動,完全是本色演出,而林妙可等幾位小演員有大量的荒島冒險戲份,非常精彩。 
張柏芝在片中飾演的慧妮為了能拿到拍電影的投資,拋下丈夫和兒子,同鄭中基飾演的沉迷酒色功夫平平的武打明星高大龍前往一個荒島拍攝廣告,不料卻被捲入一個邪惡的尋寶、盜寶組織。影片通過冒險歷程講述了一個搞笑、溫情的閤家歡故事。作為女主演的張柏芝在片頭的一段為了趕回家給兒子過生日,穿著輪滑鞋在街頭狂奔的戲份相當驚險,在島上奪寶戲份也非常精彩。
在影片中鄭中基扮演的功夫明星高大龍以一身白色的中山裝出場,他整日沉迷於酒色、功夫平平,號稱全銀河系最能打但拍戲基本靠替身,半夜還會孤獨地哭泣,有一個前女友留下的女兒,但在外人面前要叫他「表哥」,這樣一個「偽功夫高手」,在面臨真正的壞人時,自然只有挨打的份兒,也因此製造了不少笑料。 
王晶與張珂源也在片中以「胖爸爸」和「胖兒子」的搭檔搞笑出演,王晶在片中是高大龍的經紀人,一直在兒子面前宣稱英雄,但危險來臨時為了保護兒子使了幾招「肥螳螂拳」後就乖乖投敵。鄭中基和王晶負責搞笑,邵兵則在片中負責純爺們的打戲,宛如現代版的人猿泰山,用一根繩子在林中來無影去無蹤地穿梭,帶著兒子住在荒島上,拒絕現代文明,不但有一身好功夫還深諳用草藥治病。雖然片中有很多打戲,也有大蛇、食人花等貌似恐怖的殺人利器,但打戲都以輕鬆的惡搞為主。 

※幕後製作※
  張柏芝自產後復出後,便以傳說中的「千萬身價」回歸影壇,先後接拍《最強喜事》、《極速天使》、《楊門女將》。此次加盟《無價之寶》,張柏芝在影片中與鄭中基等明星上演「搞笑大冒險」,張柏芝的兒子Lucas也在片中客串演出。被問及是如何搶得Lucas出演時,王晶表示自己跟謝家是「三代交情」,Lucas將在《無價之寶》裡 「真情流露」。至於邀請Lucas參演《無價之寶》的片酬,王晶笑稱:「我只用了一杯雪糕就搞定了他。」張柏芝復出的片酬一直被傳高達1000萬元,當被問及張柏芝出演《無價之寶》的片酬時,王晶則諱莫如深地表示,張柏芝片酬是合乎市場供求的價格。有記者問到明星的「高片酬」是否物有所值,王晶表示自己也無力控制明星片酬,「但戲好才是硬道理,我們還是把這個做好更實在一些。 」
  張柏芝接受採訪時直言,《無價之寶》是一部閤家歡冒險片,它的故事風格很像迪士尼電影,劇本很精彩,她更稱自己接拍這部電影,一定程度上是因為Lucas。此前有報道稱,由於張柏芝未拍完《楊門女將》的戲份就去拍《無價之寶》,導致《楊門女將》遲遲不能殺青。對此,張柏芝正式澄清說:「《楊門女將》到現在都還沒拍完,我自己也是被動的一個,他們拍到哪裡我都不太清楚。現在《無價之寶》都要完成了,那邊還沒拍完。我希望《楊門女將》趕快完成,大家不要再亂猜。 」
  王晶同時透露,《無價之寶》雖然還是會走自己拿手的喜劇路線,但這次和他以往拍攝的喜劇電影有很大的不同,「《無價之寶》是一部老少咸宜的閤家歡電影,這也是謝霆鋒、張柏芝同意讓Lucas客串出演的原因。 」

※截  圖※
點擊此處在新視窗瀏覽實際大小的圖片
General
Complete name : 無價之寶.Treasure.Hunt.2011.DVD.rmvb
Format : RealMedia
File size : 836 MiB
Duration : 1h 40mn
Overall bit rate : 1 149 Kbps
Video #0
ID : 0
Format : RealVideo 4
Codec ID : RV40
Codec ID/Info : Based on AVC (H.264), Real Player 9
Duration : 1h 40mn
Bit rate : 1 021 Kbps
Width : 1 024 pixels
Height : 576 pixels
Display aspect ratio : 16:9
Frame rate : 23.000 fps
Resolution : 12 bits
Bits/(Pixel*Frame) : 0.075
Stream size : 734 MiB (88%)
Audio #1
ID : 1
Format : AAC
Format/Info : Advanced Audio Codec
Codec ID : raac
Codec ID/Info : Real Player 9
Duration : 1h 40mn
Bit rate : 128 Kbps
Channel(s) : 2 channels
Sampling rate : 44.1 KHz
Resolution : 16 bits
Stream size : 92.0 MiB (11%)

下載教學步驟一:
進入下載畫面之後,移動到網頁右下方你會看到"普通下載"的按鈕,選擇按下"普通下載"等一下下會出現識別碼,依照顯示的識別碼輸入即可。

下載教學步驟二:
移動到網頁右上方你會看到倒數的秒數出現,等待秒數完成後按下"普通下載"即可下載。

PS:如果識別碼不清楚可以選擇更新輸入後確定等待約20秒即可下載,下載點不支援 訊雷、快車、BT..等等續傳軟體,請使用IE瀏覽器下載。

點擊此處瀏覽連結下載教學網頁圖片請點這裡
KMPlayer Ver.2.9.4.1436影音播放軟體 (內含加掛MP3插件 無所不播無所不放~綠色版免安裝版)→ 點擊此處瀏覽連結下載點這裡
FileServe◎Mipony 1.2.2免費空間下載加速工具 地址→ 點擊此處瀏覽連結下載點這裡
xun6◎Mipony 1.2.2免費空間下載加速工具 地址→ 點擊此處瀏覽連結下載點這裡
-----------------------------------------------------------------
2011最新香港張柏芝鄭中基喜劇大片《無價之寶》
----------------------------------------------------------------- 
點擊此處瀏覽連結點擊此處注冊後可以免費得到一個500GB的空間獲得高速下載通道: 
點擊此處瀏覽連結掛機網賺 20dollars2surf,全自動衝浪掛機也可賺錢 點擊此處瀏覽連結※內附完整教學圖※
點擊此處在新視窗瀏覽實際大小的圖片
BD-720P [RMVB]
< 《無價之寶 Treasure Hunt》下載連結資料夾 >
點擊此處在新視窗瀏覽實際大小的圖片
點擊此處瀏覽連結下載點這裡
Folder link: 點擊此處瀏覽連結http://www.fileserve.com/list/jxeBJPE
點擊此處在新視窗瀏覽實際大小的圖片無價之寶 Treasure Hunt 2011 點擊此處瀏覽連結http://www.fileserve.com/file/fB2ZAkR

, , , , ,

☜♥☞阿德 發表在 痞客邦 PIXNET 留言(0) 人氣()