2010年TVB最新熱播劇集《誘情轉駁》720P【高清TV粵語中字】
點擊此處在新視窗瀏覽實際大小的圖片

點擊此處在新視窗瀏覽實際大小的圖片 

【劇 名】:誘情轉駁
【英 名】:Links to Temptation
【編 劇】:冼少玲、何永年、阮美鳳、潘凱恩
【編 導】:陳志江、梁耀堅、黃思遠、廖晉碩
【助理編導】:吳超榮、陳健珊、李鳳明、梁宏圖
【製作統籌】:詹淑英
【監 制】:徐遇安
【編 審】:劉枝華 
【日 期】:2010年12月13日-2011年1月7日
【製 作】:2009年7月至10月 
【播出時間】:逢星期一至五 9:30PM 翡翠台、10:30PM 高清翡翠台
【首播日期】:2010年12月13日
【類 型】:時裝懸疑 
【製 作】:香港電視廣播有限公司 
【集 數】:20集
【主 演】:馬浚偉、陳法拉、蒙嘉慧、黃德斌、李思捷、洪天明
【角色對照表】:馬浚偉 (飾成偉信)、 陳法拉 (飾熊朗蕎)、蒙嘉慧 (飾關可晴)、洪天明 (飾劉孝輝)、黃德斌 (飾高忠榮)、李思捷 (飾成偉業)、黃智賢 (飾何國祥)、劉丹 (飾高永泰)
【語 言】:粵語
【字 幕】:中文
【接 檔】:上一檔:2010年12月10日 ←→ 刑警 / 下一檔:2011年1月10日 ←→ 仁心解碼
【影片大小】:1.10GB
【官方網站】:點擊此處瀏覽連結http://programme.tvb.com/drama/linkstotemptation/
【維基百科】:點擊此處瀏覽連結http://zh.wikipedia.org/wiki/誘情轉駁
【播 放】:高清播放與具體劇情介紹 

劇情簡介
手機情緣 何時再續?

手機-都市人不可缺少的通訊工具。它可以令你獲得來自他人、來自世界最新最快的資訊,甚至為你接駁一段感情,帶你經歷一段畢生難忘的遭遇……
出生於中產家庭的成偉信,自幼的生活和前途都由任職事務律師的父親成立仁所安排,仁為人踏實、安份守己,希望兩子繼承父業,都能成為律師。信大學畢業後,如仁所願成為事務律師,但生性好奇、愛追求刺激的信,認為事務律師的工作沉悶,決心轉型為大律師,希望接觸各式各樣的人及案件,為生活帶來一點刺激和精彩。
為慶祝正式執業成為大律師,信與父仁、母梁桂芬、弟弟業一同到澳門遊玩,旅程本是溫馨平淡,直到信在偶然下,遇上鋼管舞女郎熊朗蕎,蕎正同小混混前男友蒲英達發生爭執,因為達以手機偷偷拍下蕎沐浴的裸照,並向蕎勒索分手費,蕎不肯就範,同達搶奪手機,混亂間手機從天台跌下,被信拾獲。信出於正義,把手機還給蕎,並協助蕎逃脫達的糾纏。這兩天的刺激經歷,以及蕎的美貌,都使信迷戀不已。
信回港後,對蕎念念不忘,終在工作的空檔中,重回澳門,希望和蕎再見一面,但蕎已離開夜總會,不知所蹤,信頓感失落。
當信以為和蕎之間的一切已如煙幻滅時,信竟然在旺角街頭重遇蕎,而蕎已搖身一變成為網絡銷售女郎,信大為振奮,以為可以跟蕎有進一步發展,豈料蕎的態度一百八十度逆轉,更刻意避開信,令信大惑不解。
與此同時,任職理賠師的業,於旺角一商場調查保險索償事故,給在內開設手機店的關可晴誤會為色情狂偷拍裙底照,晴為人正直,有話直說,認為業是代表無良保險公司,不肯賠償受傷的清潔工,但業卻以行動証明自己只想查出真相,寫公正的報告,業追求真相的精神和態度終打動了晴,並和晴一同找出目擊證人,清潔工最後得到應有的賠償。而業、晴同樣喜愛研究高科技,加上都愛鬥嘴,儼然成為一對歡喜冤家。

騙局一場 只為報仇! 

信發現蕎主動接近泰。其實蕎一直受神秘人指示,只要成功接近泰,蕎就可獲得豐厚報酬,而泰生性風流,二人本可一拍即合,不過泰兒子高忠榮曾和蕎有一面之緣,對蕎也有好感,後來榮為了生意上得到泰的金錢資助,把蕎拱手相讓。蕎對信不諱言是為了泰的財富,因為自小家貧,三餐不繼,深受貧窮之苦,錢是人生最大的目標,為了成為有錢人可以不惜一切,希望令信對自己死心。
但信卻認為蕎只是受童年陰影所影響,並非大奸大惡之徒,決心阻止蕎、泰發展,並毅然向蕎示愛,蕎錯愕,也有一剎那被信的真誠打動,當蕎冷靜下來,明白自己的出身和信有著很大的距離,與信的愛情不可能有結果,加上蕎又接到神秘人的指示,要蕎同泰發生關係,蕎為了得到大筆酬勞,改善生活,毅然答應。不料陰差陽錯,蕎、泰因意外並沒有發生關係,信卻誤會二人已發生了關係,信對蕎失望,決定放棄追求蕎,蕎雖知信有所誤會,也不作解釋。
神秘人也相信蕎已和泰發生關係,並對蕎作出另一指示,要蕎在泰六十大壽的晚會上,當眾宣佈是泰的私生女,並指泰和親生女兒亂倫,好讓泰內疚羞愧,蕎被逼向神秘人坦白沒有和泰發生關係,神秘人大為震怒。計劃因意外而失敗,壽宴當晚,泰竟宣佈蕎為親生女兒,蕎也不知所措,神秘人將計就計,要蕎繼續扮演其私生女,以調查泰的犯罪證據,務要使泰坐牢為止。蕎也貪戀物質生活,答應假扮泰的女兒。
信得知蕎是泰的女兒一事,才明白誤會了蕎,放下心頭大石,重新追求蕎,但蕎對信仍是若即若離,信也察覺到蕎的行為神秘,經常收到神秘電話,開始調查蕎……
而晴亦漸漸與榮的助手劉孝輝相熟,輝因有口吃的毛病而自卑,又經常被別人欺負,而自小與輝相識的榮雖也經常呼喝輝,但事實上,榮和輝感情深厚,若輝受到欺負,必定為輝出頭,所以輝一直對榮忠心耿耿,而晴也看透二人關係,遂主動關懷輝,並助輝醫治口吃的毛病,使輝初嚐戀愛滋味,欲借此從輝身上套取榮、泰父子的秘密。

爭奪遺產 親情全拋!

泰和蕎重聚,泰因愧對蕎母女,不論在物質或感情上都加以補償,令蕎對泰的為人大為改觀,明白泰為人只是粗枝大葉,而非奸險之徒,而泰的關懷也讓蕎感受到多年來難得的父愛,使蕎對泰產生了父女之情,蕎開始逃避神秘人的控制。
泰對蕎的寵愛日濃,最不是味兒的就是榮,因為榮認定自己會繼承泰的一切,因而養成驕縱跋扈的性格,而且好大喜功,同泰時有磨擦,如今蕎的出現,令榮擔心地位不保,會被蕎分攤泰的家財,不但對蕎產生敵意,更暗中跟泰的對頭人林中豹靠攏,令自己走上犯罪道路不能自拔。
同時,業一直代表保險公司調查榮車行申領一批失車保險的事項,結果業查出榮監守自盜,再向保險公司索償,騙取巨額保險的證據,榮向泰求助,但泰已對榮失望,又想榮受到教訓,希望榮有所反省,決袖手旁觀,榮終被判下獄。榮卻並未有所反省,相反,把一切責任推在泰、信、蕎身上,對三人痛恨不已。
泰對榮全然失望,一切感情都灌注到蕎的身上,並改寫遺囑,把財產留給蕎。但此時信已發現蕎並非泰的女兒,晴才是泰的親生女兒……

故事大綱
《誘情轉駁》(英語:Links to Temptation),香港電視廣播有限公司時裝電視劇,由馬浚偉、陳法拉、蒙嘉慧及黃德斌領銜主演,監製徐遇安。此劇為2010無綫節目精選第二季劇集之一。

人物關係圖↓
點擊此處在新視窗瀏覽實際大小的圖片

點擊此處在新視窗瀏覽實際大小的圖片
馬浚偉 飾 成偉信
角色資料
性別:男
年齡:33
職業:大律師
人物性格:
個性坦白率直,誠實大方,聰明,分析力高,記憶力強,是以從小到大學業成績非常優異。自小接受傳統教育,家教亦嚴,加上職業是律師,事事皆要按部就班,一直生活於規矩和平淡之中,但其實生性好奇,是以在工作及家庭以外的生活,喜歡尋找刺激挑戰,對自己不解的人和事皆想探究清楚。
工作方面,做事積極,負責任,頭腦清晰,辦事能力強,極富正義感,不怕強權,亦不怕惡勢力,果斷兼具自信。感情方面,是個勇敢、真誠、熱情澎湃又容易沉溺的人,遇上所愛,會不顧一切全心全意地投入,甚至不能自拔。


點擊此處在新視窗瀏覽實際大小的圖片
陳法拉 飾 熊朗蕎
角色資料
性別:女
年齡:26
職業:鋼管舞女郎
人物性格:
現實主義者,極度實際。自幼家貧,受盡窮困之苦,故認為只要有錢,就有幸福。崇尚物質主義,貪錢,以賺快錢為目標,冀盼過有錢人的生活。
率真爽直,敢愛敢恨,剛強倔強,說一不二,為目標勇往直前,甚至可以犧牲色相。
不相信愛情,缺乏安全感,認為錢才最可靠,愛情根本不重要。其實內心對愛情充滿憧憬,一旦投入一段感情,便會堅執忠誠,矢志不渝。


點擊此處在新視窗瀏覽實際大小的圖片
蒙嘉慧 飾 關可晴
角色資料
性別:女
年齡:27
職業:手機舖老闆
人物性格:
極富同情心、有正義感,熱心幫助有需要的人,任何困難也阻擋不了她,極其堅毅不懈。
能幹、能言善道、聰慧機靈、精明冷靜,甚懂生意之道。
自小與母相依為命,孝順母親,為分擔母親重擔,很早便踏足社會,故深懂揣摩人心。長大時目睹母親被泰拋棄後所受的苦楚,立志向泰報復,變得偏執、冷酷無情、城府甚深,不擇手段向泰報仇,但其實當牽涉無辜時也受盡良心責備,內心矛盾痛苦。


點擊此處在新視窗瀏覽實際大小的圖片
洪天明 飾 劉孝輝
角色資料
性別:男
年齡:33
職業:車行職員
人物性格:
天生口吃,為此缺陷忍受了不少恥辱,故自卑、沉默寡言,內向低調,不喜歡與人接觸。
感情脆弱,因自卑而不敢追求異性,亦從未想過自己可以得到愛情。故被欺騙感情後自尊完全受挫,變得憤怒、心狠手辣。
身手敏捷,能幹,做事乾淨利落,不畏艱苦。可以為對自己好的人作出無私的奉獻,對有恩於己的榮極為忠心,為報答榮,做任何事也義無反顧。


點擊此處在新視窗瀏覽實際大小的圖片
黃德斌 飾 高忠榮
角色資料
性別:男
年齡:35
職業:水貨車行老闆
人物性格:
家中獨子,家境富裕,自小受父親溺愛,故養成驕橫跋扈、自大的性格,自恃甚高,常小覷別人,並自覺聰明,甚為主觀自我。
好勝、急功近利,以為自己甚具生意頭腦,常問父親泰借錢開舖頭搞生意,但往往蝕本收場,事後只會埋怨泰沒有提供足夠資金。
認為錢、權力最重要,做事不擇手段。


點擊此處在新視窗瀏覽實際大小的圖片
李思捷 飾 成偉業
角色資料
性別:男
年齡:31
職業:公證行理賠師
人物性格:
善良、自信、誠懇,公平公正,具偵探頭腦,崇尚科學精神,事事求真,凡事愛抽絲剝繭、查根究底,相信真理永在。
好勝、逞強、愛鬥嘴、有點尖酸刻薄,對女性也不會收斂讓步,經常四面樹敵。興趣廣泛,求知慾強,對新科技資訊尤為熱衷。
由於過份自信,變得有點固執,甚至獨斷獨行。受母親影響,自小養成節儉儲蓄習慣,精打細算,常給人斤斤計較「算死草」的感覺。


點擊此處在新視窗瀏覽實際大小的圖片
黃智賢 飾 何國祥
角色資料
性別:男
年齡:40
職業:泰助手
人物性格:
做事精明、仔細謹慎,具智謀,甚有商業頭腦。
忍耐力強、情緒商數極高,經常給泰喝罵也能笑臉相對。


點擊此處在新視窗瀏覽實際大小的圖片
劉丹 飾 高永泰
角色資料
性別:男
年齡:60
職業:旺角舖王
人物性格:
具生意頭腦,刻苦耐勞,意志力強,終成為旺角舖王。雖在商言商,能靈活變通,不會為賺錢而做犯法事。
典型的暴發戶,爽快、財大氣粗,相信有錢能解決一切,故縱然疼惜兒子,但不懂教子,只懂喝罵,並以為錢可表達父愛,結果教出一個不肖子。
風流好色、愛玩女人,但「明買明賣」,具生意人本色,處處計較,不會輕易讓女人取得好處。

點擊此處瀏覽連結※精采片段影片※

※劇  照※ 
點擊此處在新視窗瀏覽實際大小的圖片

點擊此處在新視窗瀏覽實際大小的圖片

點擊此處在新視窗瀏覽實際大小的圖片

點擊此處在新視窗瀏覽實際大小的圖片

※截  圖※
點擊此處在新視窗瀏覽實際大小的圖片
※影片格式資訊※
General
Complete name : 誘情轉駁.Links.to.Temptation.EP11.720P.X264.AC3.mkv
Format : Matroska
File size : 1.09 GiB
Duration : 44mn 32s
Overall bit rate : 3 509 Kbps
Encoded date : UTC 2010-12-31 17:45:58
Writing application : mkvmerge v3.3.0 ('Language') built on Mar 24 2010 14:59:24
Writing library : libebml v0.8.0 + libmatroska v0.9.0
Video #1
ID : 1
Format : AVC
Format/Info : Advanced Video Codec
Format profile : High@L4.1
Format settings, CABAC : Yes
Format settings, ReFrames : 8 frames
Muxing mode : Container profile=Unknown@4.1
Codec ID : V_MPEG4/ISO/AVC
Duration : 44mn 32s
Bit rate : 3 055 Kbps
Nominal bit rate : 3 124 Kbps
Width : 1 280 pixels
Height : 720 pixels
Display aspect ratio : 16:9
Frame rate : 25.000 fps
Resolution : 24 bits
Colorimetry : 4:2:0
Scan type : Progressive
Bits/(Pixel*Frame) : 0.133
Stream size : 974 MiB (87%)
Title : Move(影片軌)
Writing library : x264 core 98 r1649 c54c47d
Encoding settings : cabac=1 / ref=8 / deblock=1:-3:-3 / analyse=0x3:0x113 / me=umh / subme=7 / psy=1 / psy_rd=1.00:0.00 / mixed_ref=1 / me_range=16 / chroma_me=1 / trellis=2 / 8x8dct=1 / cqm=0 / deadzone=21,11 / fast_pskip=0 / chroma_qp_offset=-2 / threads=6 / sliced_threads=0 / nr=0 / decimate=0 / interlaced=0 / constrained_intra=0 / bframes=3 / b_pyramid=2 / b_adapt=2 / b_bias=0 / direct=3 / weightb=1 / weightp=2 / keyint=250 / keyint_min=25 / scenecut=40 / intra_refresh=0 / rc_lookahead=40 / rc=2pass / mbtree=1 / bitrate=3124 / ratetol=1.0 / qcomp=0.60 / qpmin=10 / qpmax=51 / qpstep=4 / cplxblur=20.0 / qblur=0.5 / vbv_maxrate=50000 / vbv_bufsize=50000 / ip_ratio=1.40 / aq=1:1.00 / nal_hrd=none
Language : Chinese
Audio #2
ID : 2
Format : AC-3
Format/Info : Audio Coding 3
Codec ID : A_AC3
Duration : 44mn 32s
Bit rate mode : Constant
Bit rate : 384 Kbps
Channel(s) : 6 channels
Channel positions : Front: L C R, Surround: L R, LFE
Sampling rate : 48.0 KHz
Stream size : 122 MiB (11%)
Title : Cantonese(粵語)
Language : Chinese
Text #3
ID : 3
Format : UTF-8
Codec ID : S_TEXT/UTF8
Codec ID/Info : UTF-8 Plain Text
Title : CHT(繁體中文)
Language : Chinese
Text #4
ID : 4
Format : UTF-8
Codec ID : S_TEXT/UTF8
Codec ID/Info : UTF-8 Plain Text
Title : CHS(簡体中文)
Language : Chinese

下載教學步驟一:
進入下載畫面之後,移動到網頁右下方你會看到"普通下載"的按鈕,選擇按下"普通下載"等一下下會出現識別碼,依照顯示的識別碼輸入即可。

下載教學步驟二:
移動到網頁右上方你會看到倒數的秒數出現,等待秒數完成後按下"普通下載"即可下載。

PS:如果識別碼不清楚可以選擇更新輸入後確定等待約20秒即可下載,下載點不支援 訊雷、快車、BT..等等續傳軟體,請使用IE瀏覽器下載。

點擊此處瀏覽連結下載教學網頁圖片請點這裡
KMPlayer Ver.2.9.4.1436影音播放軟體 (內含加掛MP3插件 無所不播無所不放~綠色版免安裝版)→ 點擊此處瀏覽連結下載點這裡
FileServe◎Mipony 1.2.2免費空間下載加速工具 地址→ 點擊此處瀏覽連結下載點這裡
xun6◎Mipony 1.2.2免費空間下載加速工具 地址→ 點擊此處瀏覽連結下載點這裡
-----------------------------------------------------------------
2010年TVB最新熱播劇集《誘情轉駁 Links to Temptation》720P【高清TV粵語中字】
----------------------------------------------------------------- 
點擊此處瀏覽連結點擊此處注冊後可以免費得到一個500GB的空間獲得高速下載通道: 
點擊此處瀏覽連結掛機網賺 20dollars2surf,全自動衝浪掛機也可賺錢 點擊此處瀏覽連結※內附完整教學圖※
點擊此處在新視窗瀏覽實際大小的圖片
HDTV-720P [MKV]
點擊此處在新視窗瀏覽實際大小的圖片
< 誘情轉駁 第01集至20集[所有集數] 下載連結資料夾 >
點擊此處瀏覽連結下載點這裡
誘情轉駁 所有集數下載連結資料夾 
點擊此處在新視窗瀏覽實際大小的圖片Folder link:
點擊此處在新視窗瀏覽實際大小的圖片誘情轉駁 點擊此處瀏覽連結http://www.fileserve.com/list/hdPxYUg

 

, , , ,

☜♥☞阿德 發表在 痞客邦 PIXNET 留言(0) 人氣()