1999年TVB最新熱播劇集《騙中傳奇》【高清TV粵語中字】 

點擊此處在新視窗瀏覽實際大小的圖片 

【劇 名】:騙中傳奇 
【英 名】:Game of Deceit
【監 製】:徐正康
【編 劇】:薛家華、關頌玲
【日 期】:1999年8月16日—9月10日
【製 作】:1999年 
【播出時間】:星期一至五 9:30PM 翡翠台、9:30PM 高清翡翠台
【首播日期】:1999年8月16日
【類 型】:清裝喜劇 
【製 作】:香港電視廣播有限公司 
【集 數】:20集
【主 演】:宣萱、苑瓊丹、張家輝、錢嘉樂、張玉珊、胡楓
【語 言】:粵語
【字 幕】:中文
【影片大小】:229MB
【官方網站】:點擊此處瀏覽連結http://www.tvb.com/tvbi/program/game/index_vn.htm
【維基百科】:點擊此處瀏覽連結http://zh.wikipedia.org/wiki/騙中傳奇
【演員詳表】:
   江玉麟——宣萱飾 
   余忠正——張家輝飾 
   阿 井——錢嘉樂飾
   錢寶兒——張玉珊飾
   九斤二——苑瓊丹飾
   余 實——胡楓飾
   江守言——Joe Junior 飾
   錢方孔——羅樂林飾
   顧殘生——廖啟智飾
   杜承康——盧慶輝飾 
   和 珅——劉家輝飾
   雍 正——艾威飾
   嘉 慶——蔡子健飾
   明 月——湯盈盈飾
   春 花——鄺文珣飾
   如 玉——汪琳飾
   兩廣總督——蔡國慶飾
   風塵女子——楊怡飾

劇情簡介
話說清朝,詭計多端的余忠正(張家輝)與市井小混井(錢嘉樂)常利用千術在江湖中混飯吃,不料一次誤撞下,害死了井的師父生(廖啟智),又令錢莊老闆孔(羅樂林)生意一落千丈,孔女寶(張玉珊)淪落為花魁。另外,正因揭破「天下第一牙」的公正行少東江玉麟(宣萱)是女兒家身份,被麟逼婚以保公正行聲譽,正於是要由老千變成堅守廉正的公正行主持,真是苦不堪言! 
余忠正成公正行主持後,運用其天生的騙術天才,加上得井和麟的協助,成功揭破不少千案,如:「處女花魁」、「天下無雙」、「風調雨順」等等;而正與麟、井與寶亦於過程中,由冤家漸漸發展成情侶。 


分集介紹
第1集 文武廟內,眾神棍正利用種錢騙術欺騙無知婦孺,時一男子正假扮富商,由同黨井扮僑 夫進入。神棍見正珠光寶氣,忙傾盡錢財欲騙取正手上之銀兩,卻反被正以其人之道還 治其人之身,損失慘重。 正與井雖是市井流氓,經常呃呃騙騙,但二人都非常孝順。正到妓院尋歡,偶遇牙行少 爺玉,彼此發生誤會,而井則對大鬧妓院的玉之未婚妻兒,顯得神暈顛倒。監別大會舉 行在即,各牙行均隆重其事派出代表,正與井混入會場,卻被玉逮個正著。 
第2集 監證會內,,玉籍正手持用「脫骨法」製成之假請帖,分辨出唐伯虎「秋香圖」之真跡, 正與井均被趕離會常兒父孔要鑄造「嘉慶通寶」銅錢,但銅商坐地起價,玉替孔想辦法 應付。 玉正收集情報之際,遇上正,彼此互鬥一番,玉贏了漂亮一仗離去。玉叫孔用銀票向民 間換取銅錢,並給與小利,群眾均大派長龍換取銀票,正看在眼裡,又想出騙財之法, 他與井合演一場好戲,令人以為銅幣藏金,於是眾婦人用高價換取正手上銅錢,消息不 逕而走,眾人均紛紛前往孔錢莊取回銅幣。 
第3集 玉與僕人九喬裝羊牯,引正上吊,正與井原形畢露,更被押入監牢。正父實前往探監, 向正說出當年與玉父言之一段恩怨。當年實替人打造棉被,被人冤枉偷工減料,實找來 有「天下第一牙」稱之言作公證,惜言作出錯誤判斷,令實蒙上不白之冤,此後實更因 此居無定所,顛沛流離。 實決定大鬧言家,言因欲逃避扮作暈倒,後向玉道出當年對實作出之錯誤判斷,遂勸玉 將正放掉,以作補償。正與井被釋放後,正與家人一起晚飯,豈料公差又至,將正與井 再次拉去。 
第4集 孔不忿玉放走二人,遂使出橫手令正等人再次入獄,更從井師父生手上取得假銅幣做證 。公堂上,玉利用化金水將銅錢藏金技兩拆穿,不料銅錢真的藏有真金。玉明查暗訪下 ,終查出銅錢藏金乃生所為。生力勸正要重新做人,不要再令實費心,正動容。 生在玉面前露了一手,玉將此事告之孔,孔露出不安神色。大街上,群眾均為銅錢而起 爭執,情況十分混亂。兒遇上井,利用美色騙井說出真相,幸正及時出現,井才沒有出 賣生。分辨銅錢藏金方法終被玉想出,生暗自擔心。 
第5集 玉在井中放下大量鹽份,令藏金銅幣可沈下井底,而金銅幣則會浮於水面,籍此分出真 假。另邊廂,生亦想出破解之法,他命正及井於水井周圍倒下大量醋,若然天下大雨, 則醋將會浸入井水,無論銅幣有金或金,均會沈下井底。 驗證銅幣當天,天下大雨,令生計劃能順利進行,玉卻被結果嚇得呆祝銅幣起貨日期將 至,孔唯有約生往觀音廟內面談。面談結果,孔用五百兩及碧綠觀音手,用作交換生破 解玉落鹽驗證之法。 
第6集 生雖得到孔賠償,但未能忘記當年孔因想獨吞碧綠觀音手,不惜斬斷他雙手,更將他置 之死地,遂將井打至昏迷,嫁禍給孔;正信以為真,欲對幫兇玉報復,卻發現玉竟是女 兒身。 公堂續審銅錢藏金一案,正在公堂拆穿玉為女兒身,更指控孔賄賂生,令玉等人無地自 容。皇上要將玉及孔等人抄家,孔受不住多番刺激,終撤手塵寰,兒因此對玉恨之入骨 ,另外,玉及兒等人亦被囚入天牢。實無心之言,令正對玉傷害井一事有所動搖,後見 生行為古怪,不禁心下狐疑。 
第7集 井昏迷後,生感內疚,遂把觀音手變賣,替井床上換上絲綢,又買人給井補身,正見狀 ,懷疑生出賣井,於是拿走生家中之玉器粉末給玉監定,後更假扮買家引生入甕,惜被 生走脫。 正再設計令生不打自招,說出事件真相,生更承認一直利用正及井二人作為報復棋子。 生欲殺正滅口,混亂間油燈推跌,火勢蔓延,正吃力地將昏迷的井拖出屋外,此時,生 一聲慘叫,令井甦醒,井即衝入火場,卻欲救無從,看著生被火活活燒死。 
第8集 朝庭公佈玉等人三日後問斬,正揭力挽救。處斬當日,井與九欲途中劫囚,卻不成功, 幸正出現,除教眾人分辨銅錢藏金方法,他的一番肺腑之言,令眾人紛紛拿出銅錢,玉 等人才可釋放。 兒過不慣窮人生活,井看在眼裡,不惜千金買來燕窩及絲綢來令兒高興。另邊廂,言欲 重出江湖,卻被人刁難,正拔刀相助,言雖對正刮目相看,玉對正卻越感痛恨。言從玉 處偷聽到正曾輕薄玉,遂找實算賬,更設局令實知道正乃大騙子一名。 
第9集 實為彌補正輕薄玉一事,決定讓正入贅言家,並使正及玉米巳成炊,但兩人卻不肯就範 。二老為令計劃成功,假裝病入膏肓,才令二人勉強應允。成婚當天,正受盡辱才可進 門,巳感氣結,於是命井將所有禮金收起,用作私房錢,但井卻被兒將禮金全數騙去, 正雖惱井,但兄弟一場,遂原諒了井。 正與玉自成婚後,經常勢不兩立,卻又要在兩老前扮恩愛,雙方均感疲累。布政大人找 正監證罕有的女兒紅,玉得悉後大表驚慌。 
第10集 布政府內,正辟室作試酒場地。正因不懂女兒紅特性,正在糟蹋整酲美酒。斤與玉趕至 時,正巳醉昏,玉為替正補鑊,到友康之酒莊一行,事件才完滿解決。布政使作出重賞 ,但正卻以為憑己本事爭取回來。玉為免正再出洋相,使計令他前往杭州驗貨。 杭州怡紅院內,兒突出現,眾富商要正所驗證的,卻是兒是否處子之身,正雖感為難, 但仍能過關,但井對兒淪落風塵,頓感心痛。井為救兒,不惜將眾富商打昏。 
第11集 兒從富商身上取走銀票後,與井逃走,至渡頭時,兒棄下井離去。正知井闖下大禍,遂 使計令正置身事外。玉為幫忙康,替正接下甄迅天下無雙酒」之配給人選工作。正從杭 州回來,見玉與康之親暱態度,感到不是味兒,遂對康諸多為難。 酒樓內,正要與康測試酒膽,突然發生大火,正依計行事從二樓跳下,安然無恙,但見 康突然轉身不見,正當眾人以為他貪生怕死時,卻見他抱著井離開火場,原來放火乃正 出之鬼主意,但井卻弄假成真,眾人均不恥正之所為

故事大綱
阿正(張家輝 飾)天生天資聰穎、詭計多端,可惜他沒有用上天賜予的才華幹一番事業,而是與市井小混混阿井(錢嘉樂 飾)利用千術在江湖上騙吃騙喝。然而一次偶然,他們的行騙引發了一連串惡果:阿井的師傅被害死,錢莊孔老闆的生意被徹底破壞,他的女兒更是淪落成了青樓的花魁。同時,因為阿井揭穿了當地「天下第一牙」的公證行的少爺阿麟(宣萱 飾)原來是女兒身,被迫與阿麟假成親以保住公正行的名聲和主持大局。
原來的江湖老千阿正搖身一變成了主持公正的公證行掌門,剛開始角色的變換令他很不適應。但是在阿井以及阿麟的幫助下,阿正憑著他的聰明才智和長年累月積累的江湖經驗,揭穿了一系列老千犯案,而且在日久相處中,他更與阿麟產生了真感情……  

人物關係圖↓

點擊此處在新視窗瀏覽實際大小的圖片
江玉麟 - 宣萱 飾
性格及背景:
硬朗,耿直,處事嚴明,有勇有謀,感情專一。   

牙行少主人,其父江守言在玉麟還未出世前跟別人指腹為婚。於是玉麟被迫女扮男裝,更要肩負牙行責任。對於未婚妻錢寶兒,玉麟感到既內疚又畏懼。後由於被忠正誤打誤撞窺見全相,遂孤注一擲,將畢生幸福作賭注,逼使忠正迎娶自己。   


點擊此處在新視窗瀏覽實際大小的圖片
余忠正 - 張家輝 飾
性格及背景:
天資聰敏,頭腦冷靜,擅於觀察。雖為騙子,卻富正義感,本性善良。   

自幼被父余實嚴厲管教,不容欺詐狡猾,惟在江湖打滾,自知不以此技倆無法生存。因發放消息稱銅幣內藏有金,被牙行少主江玉麟悉穿,令好友阿井師傅被害。忠正大受打擊,為報復竟誤打誤撞揭破江玉麟女扮男裝,遂被玉麟迫婚,以恢復牙行聲譽。   阿井-錢嘉樂    
性格及背景 : 戇直善良,對感情執著,為所愛的人不惜付出一切。   

自幼無父無母,無名無姓,在井邊被發現,故名「阿井」。與忠正自小相識,情如兄弟,對忠正口才機靈甚為佩服,常跟隨他在外行騙謀生。在妓院巧遇寶兒,對她一見鍾情。眼見寶兒彷徨無助,多次出手相救,卻反被利用,令師傅被害,與忠正友情亦受考驗。 


點擊此處在新視窗瀏覽實際大小的圖片
錢寶兒 - 張玉珊 飾
性格及背景:
冰肌玉骨,天姿國色,刁蠻潑辣,目中無人,善利用男人弱點以達目的。   

自小風華絕代,引來狂蜂浪蝶,但寶兒全不屑一顧,只對指腹為婚的玉麟情有獨鍾。後來玉麟被揭穿女兒之身,加上父親又作繭自斃,寶兒一夜間失去一切,大受刺激,性情大變,滿腔怨憤,對玉麟、忠正二人懷恨在心,誓向二人報復。



點擊此處在新視窗瀏覽實際大小的圖片
九斤二 - 苑瓊丹 飾
性格及背景:
柔弱怕事,沒有主意,唯命是從,從不怨天尤人。   

自幼家貧,賣身入江家,女扮男裝作為玉麟書僮。二人情同姐妹,乃玉麟傾吐心事對象。阿井跟隨忠正到「天下第一牙」,斤對阿井一見鍾情,卻不敢表白,直至阿井對寶兒動情,大受打擊,斤才鼓起勇氣表白,惜阿井心中只有寶兒,斤惟有收拾悲傷心情。


點擊此處在新視窗瀏覽實際大小的圖片
余 實 - 胡 楓 飾
性格及背景:
忠厚老實,固執,對事十分執著,因曾受騙而變得偏激。   

本為打棉花師傅,被客人指責偷減材料,余實遂到「天下第一牙」找江守言鑒定,誰料江守言判余實不老實,從此名譽掃地,懷恨在心。余實一直望子成龍,以為兒子殷實營商,「通寶藏盒」一事被揭發後,才知忠正以行騙為生,父子二人大起衝突。


點擊此處在新視窗瀏覽實際大小的圖片
江守言 - Joe Junior 飾
性格及背景:
正直,圓滑世故,對家業極重視,不惜將女兒假扮男裝,瞞騙別人,卻常有罪咎感。   

繼承祖業,壓力甚大,加上多年未有子嗣,恐後繼無人,更是寢食難安。二十年前余實為「棉花事件」找守言鑒定,碰巧守言妻子誕下玉麟,弄璋不成,心情低落而誤判余實騙棉,因而結下仇怨。


※劇  照※ 
點擊此處在新視窗瀏覽實際大小的圖片

點擊此處在新視窗瀏覽實際大小的圖片

點擊此處在新視窗瀏覽實際大小的圖片

※截  圖※ 
點擊此處在新視窗瀏覽實際大小的圖片
※影片格式資訊※
General
Complete name : 騙中傳奇.Game.of.Deceit.EP01.1999.rmvb
Format : RealMedia
File size : 230 MiB
Duration : 43mn 35s
Overall bit rate : 727 Kbps
Video #1
ID : 1
Format : RealVideo 4
Codec ID : RV40
Codec ID/Info : Based on AVC (H.264), Real Player 9
Duration : 43mn 35s
Bit rate : 663 Kbps
Width : 512 pixels
Height : 384 pixels
Display aspect ratio : 4:3
Frame rate : 25.000 fps
Resolution : 12 bits
Bits/(Pixel*Frame) : 0.135
Stream size : 207 MiB (90%)
Audio #0
ID : 0
Format : Cooker
Codec ID : cook
Codec ID/Info : Based on G.722.1, Real Player 6
Duration : 43mn 35s
Bit rate : 64.1 Kbps
Channel(s) : 2 channels
Sampling rate : 44.1 KHz
Resolution : 16 bits
Stream size : 20.0 MiB (9%)

下載教學步驟一:
進入下載畫面之後,移動到網頁右下方你會看到"普通下載"的按鈕,選擇按下"普通下載"等一下下會出現識別碼,依照顯示的識別碼輸入即可。


下載教學步驟二:
移動到網頁右上方你會看到倒數的秒數出現,等待秒數完成後按下"普通下載"即可下載。

PS:如果識別碼不清楚可以選擇更新輸入後確定等待約20秒即可下載,下載點不支援 訊雷、快車、BT..等等續傳軟體,請使用IE瀏覽器下載。

點擊此處瀏覽連結下載教學網頁圖片請點這裡
KMPlayer Ver.2.9.4.1436影音播放軟體 (內含加掛MP3插件 無所不播無所不放~綠色版免安裝版)→ 點擊此處瀏覽連結下載點這裡
FileServe◎Mipony 1.2.2免費空間下載加速工具 地址→ 點擊此處瀏覽連結下載點這裡
xun6◎Mipony 1.2.2免費空間下載加速工具 地址→ 點擊此處瀏覽連結下載點這裡
-----------------------------------------------------------------
1999年TVB最新熱播劇集《騙中傳奇》【高清TV粵語中字】
----------------------------------------------------------------- 
點擊此處瀏覽連結點擊此處注冊後可以免費得到一個500GB的空間獲得高速下載通道: 
點擊此處瀏覽連結點擊此處在新視窗瀏覽實際大小的圖片 
點擊此處在新視窗瀏覽實際大小的圖片
DVDRip-TV-480P [MKV]
< 騙中傳奇 第01集至20集[所有集數] 下載連結資料夾 >
點擊此處瀏覽連結下載點這裡
騙中傳奇 所有集數下載連結資料夾 
點擊此處在新視窗瀏覽實際大小的圖片Folder link:
點擊此處在新視窗瀏覽實際大小的圖片騙中傳奇 點擊此處瀏覽連結http://www.megaupload.com/?f=0SRBVBPN

,

Posted by ☜♥☞阿德 at 痞客邦 PIXNET 留言(0) 引用(0) 人氣()