2009年CCTV最新熱播劇集《老大的幸福》【540P高清電視劇】
【劇 名】:老大的幸福 
【英 名】:Brothers' Happiness 
【國 家】:中國大陸 
【語 言】:普通話
【字 幕】:簡體中文
【導 演】:李路
【製 片】:李路
【日 期】:2010年9月21日-2010年10月27日 
【播出時間】:星期一至五 20:00PM CCTV、22:00PM CCTV
【首播日期】:2010年3月4日
【接 檔】:上一檔:2010年8月31日 ←→ 張小五的春天 / 下一檔:2010年10月28日 ←→ 包青天
【類 型】:現代劇/劇情家庭 
【製 作】:江蘇省廣播電視有限公司 
【集 數】:39全集
【主 演】:范 偉(飾 傅吉祥)、孫 寧(飾 梅 好)
【演 員 表】:范偉 (飾 傅吉祥)(老大)、孫寧 (飾 梅 好)、周浩東 (飾 傅吉安)(老二)、李威 (飾 傅吉兆)(老三)、何江 (飾 傅吉星)(老四)、周知 (飾 傅吉平)(老五)、賈雨嵐 (飾 辛雯)、孟廣美 (飾 明月)、金巧巧 (飾 小南)、馮國強 (飾 夏錦達)、楊思恆 (飾 傅佳佳)、李舒桐 (飾 苗苗)、陳帝文 (飾 朱小陽)、戰鬥 (飾 張強)、吳詩語 (飾 媛媛)
【友情出演】:高亞麟( 飾 趙東文)(趙局)、吳秀波 (飾 楊警官)
【影片大小】:348MB
【官方網站】:點擊此處瀏覽連結http://ent.sina.com.cn/f/v/lddxfsh/
【維基百科】:點擊此處瀏覽連結http://zh.wikipedia.org/wiki/老大的幸福
【播 放】:高清播放與具體劇情介紹 

點擊此處在新視窗瀏覽實際大小的圖片

點擊此處在新視窗瀏覽實際大小的圖片 

點擊此處在新視窗瀏覽實際大小的圖片

點擊此處在新視窗瀏覽實際大小的圖片

《老大的幸福》(Brothers' Happiness)是一部中國大陸電視劇。由江蘇省廣播電視總台(集團)和華視影視(北京)投資有限公司出品,江蘇天地縱橫影視文化投資有限公司發行、拍攝。2010年3月4日至3月26日[1] 在中國中央電視台一套播出。首播當天以5.03%的收視率創下當年央視一套黃金時間段首播集的歷史最高。

劇情簡介

《老大的幸福》旨在探討當下人的幸福觀,讓觀眾在亦莊亦諧的家庭情感故事中審視現實社會的奇怪現狀。 

傅吉祥,人稱傅老大,因父母早逝,他長子為父,帶大了三個弟弟一個妹妹,把他們都送進北京的大學。當弟妹們長大成人、事業有成後,他自己卻錯過了人生的輝煌時期:因沒有生育能力而婚姻失敗,失業下崗後成為一名足療師。但他卻用樂觀精神去面對一切,仍懷有自己的事業和生活理想——成為一名按摩師和父親。在公園晨練的老大陰差陽錯與孤獨症兒童樂樂相識,一見如故。而此時樂樂的母親梅好遭到丈夫拋棄,獨自撫養樂樂,因樂樂病重,生活陷入困境,想將樂樂托付給好心人然後自殺。老大得知後救下試圖自殺的梅好,認樂樂為乾兒子,並收梅好為徒,教她做足療。三人就此相依為命,在東北小城過著平靜的生活。 

  此時居住在北京的兄弟姐妹們為了給過世多年的父母遷墳一起回到東北老家,傅家老二吉安派自己公司吉安集團的行政總監辛雯提前回老家安排行程,不料手機被偷。小偷將偷來的手機賣給老大,而這部手機正是辛雯的。傅家兄妹在老屋團聚時警察前來調查手機一事,老二吉安覺得很沒有面子,一怒之下炒了辛雯。弟弟妹妹們都覺得大哥過得不幸福,都不想讓老大再繼續做給人摁腳丫子的「下作活」,希望為大哥換個活法,決定帶大哥到北京生活。然而,老大並不覺得自己不幸福,但又怕耽誤弟弟妹妹的正事,決定暫且配合他們的安排,去北京享幾天福。老大安排好梅好母子後,跟隨弟弟妹妹來到北京。

  到北京之後,吉安把大哥安置在自己家中,卻因為生活習慣和觀念的不同發生了大大小小的碰撞,老大在老二公司參觀時巧遇正準備離職的辛雯,出於歉疚,老大極力挽回辛雯,並勸說辛雯的男朋友張強不要因為辛雯離職就跟她分手。一系列的不適應讓老大覺得應該早日回順城過自己的生活,正準備離開之時,梅好突然帶著樂樂到了北京,原來樂樂的病嚴重了,足療中心經理讓她帶著孩子上北京找老大。

  為了讓樂樂能在專業康復幼兒園進行康復訓練,老大決定留在北京,給梅好母子租了間房子,自己則去老二的公司上班、掙錢。他由最初的無所適從到漸漸發現公司白領們都存在不同程度的健康問題,並開始給大夥兒調身體,做養生。老大還給梅好在一家足療店找到了一份做足療的工作,朝夕相處中漸漸和梅好產生了相濡以沫的真摯情感,從師徒慢慢發展到愛人,然而二人的關係遭到了來自傅家弟妹的強烈反對。

  以老二為首的眾弟妹認為大哥跟帶著病孩子的洗腳妹梅好在一起不會幸福,開始了一場「拯救」老大的行動。他們試圖撮合老大和辛雯這個高級白領在一起,於是先安排老大在辛雯手下工作,然後又讓辛雯親自教老大開車等,拚命給二人製造機會。辛雯對此心如明鏡,卻像對待工作一樣去完成。但是在一系列啼笑皆非的事件中,辛雯也漸漸被老大的善良、細心和真誠所打動,外剛內柔的她逐漸跟老大相互理解,兩個人成為好友。

  老大弟弟妹妹的不斷阻擾,使得梅好不得不離開老大,她傷心難過之餘也在五光十色的大都市中得到了新的機會和選擇,她開始重新審視自己和老大的關係。梅好做按摩的夏家老太太十分喜歡性格溫婉的她,想讓她做兒媳婦,面對現實的阻力和一個看似更好的選擇,梅好的內心經歷了一番十分痛苦的掙扎。

  跟老實巴交、一根筋的老大形成鮮明對照,他的幾個弟弟妹妹則有著迥然不同的活法。二弟傅吉安是傅家的主心骨,是傅氏家族最成功的人,但實際上卻是個內心十分脆弱、打腫臉充胖子的人,過著表面光鮮的上層生活。因早年遭遇前妻背叛而對感情心灰意冷,視金錢為最真實的東西。他與出身模特的明月保持著有名無實的契約婚姻關係,虛榮與張揚為其最大秉性,所有的事都是硬撐著,有真情卻裝無情,後因資金鏈斷裂而破產,但在明月和老大的幫助下,走出了困境,回歸了家庭;三弟傅吉兆是看妻子臉色過活的公務員,其實他自己並無心在仕途上鑽營,但妻子小南卻望夫成龍心切,夫妻關係越發緊張;四弟吉星是混跡京城演藝圈的三流演員,因追逐虛榮貸款購買了豪宅,為掙錢還貸疲於奔命,甚至妻子苗苗懷孕都不敢告訴他,最終在老大的幫助下重歸現實,豪宅夢醒,有了自己的孩子;小妹妹傅吉平本以教學生鋼琴過著滋潤的生活,卻因為沉迷股市變成一個押上全部身家博弈的「股瘋」,幾乎失去一切,也從此放棄奮鬥,一門心思只想嫁個有錢人,卻忽視了身邊的有情人,直到幻想破滅,最終還是老大幫她挽回真愛找到了幸福。 

人物關係圖↓
點擊此處在新視窗瀏覽實際大小的圖片

※劇  照※ 

點擊此處在新視窗瀏覽實際大小的圖片 
※影片格式資訊※
General
Complete name : 老大的幸福.Brothers.Happiness.EP01.540P.HDTV.x264.AC3.mkv
Format : Matroska
File size : 349 MiB
Duration : 43mn 30s
Overall bit rate : 1 120 Kbps
Encoded date : UTC 2010-03-21 01:41:48
Writing application : mkvmerge v3.2.0 ('Beginnings') 編譯於 Feb 12 2010 16:46:17
Writing library : libebml v0.7.9 + libmatroska v0.8.1
Video #1
ID : 1
Format : AVC
Format/Info : Advanced Video Codec
Format profile : High@L3.1
Format settings, CABAC : Yes
Format settings, ReFrames : 3 frames
Muxing mode : Container profile=Unknown@3.1
Codec ID : V_MPEG4/ISO/AVC
Duration : 43mn 30s
Bit rate : 1 034 Kbps
Nominal bit rate : 1 056 Kbps
Width : 960 pixels
Height : 540 pixels
Display aspect ratio : 16:9
Frame rate : 25.000 fps
Resolution : 24 bits
Colorimetry : 4:2:0
Scan type : Progressive
Bits/(Pixel*Frame) : 0.080
Stream size : 322 MiB (92%)
Title : Move(影片軌)
Writing library : x264 core 80 r1376M 3feaec2
Encoding settings : cabac=1 / ref=3 / deblock=1:0:0 / analyse=0x3:0x113 / me=hex / subme=7 / psy=1 / psy_rd=1.0:0.0 / mixed_ref=1 / me_range=16 / chroma_me=1 / trellis=1 / 8x8dct=1 / cqm=0 / deadzone=21,11 / fast_pskip=1 / chroma_qp_offset=-2 / threads=6 / sliced_threads=0 / nr=0 / decimate=1 / mbaff=0 / constrained_intra=0 / bframes=3 / b_pyramid=0 / b_adapt=1 / b_bias=0 / direct=1 / wpredb=1 / wpredp=2 / keyint=250 / keyint_min=25 / scenecut=40 / rc_lookahead=40 / rc=2pass / mbtree=1 / bitrate=1056 / ratetol=1.0 / qcomp=0.60 / qpmin=10 / qpmax=51 / qpstep=4 / cplxblur=20.0 / qblur=0.5 / ip_ratio=1.40 / aq=1:1.00
Language : Chinese
Audio #2
ID : 2
Format : AC-3
Format/Info : Audio Coding 3
Codec ID : A_AC3
Duration : 43mn 30s
Bit rate mode : Constant
Bit rate : 64.0 Kbps
Channel(s) : 2 channels
Channel positions : L R
Sampling rate : 48.0 KHz
Stream size : 19.9 MiB (6%)
Title : Mandarin(國語)
Language : Chinese

下載教學步驟一:
進入下載畫面之後,移動到網頁右下方你會看到"普通下載"的按鈕,選擇按下"普通下載"等一下下會出現識別碼,依照顯示的識別碼輸入即可。


下載教學步驟二:
移動到網頁右上方你會看到倒數的秒數出現,等待秒數完成後按下"普通下載"即可下載。

PS:如果識別碼不清楚可以選擇更新輸入後確定等待約20秒即可下載,下載點不支援 訊雷、快車、BT..等等續傳軟體,請使用IE瀏覽器下載。

點擊此處瀏覽連結下載教學網頁圖片請點這裡
-----------------------------------------------------------------
2009年CCTV最新熱播劇集《老大的幸福》【540P高清電視劇】
----------------------------------------------------------------- 
點擊此處瀏覽連結點擊此處注冊後可以免費得到一個500GB的空間獲得高速下載通道: 
點擊此處瀏覽連結 
FileServe◎Mipony 1.2.2免費空間下載加速工具 地址→ 點擊此處瀏覽連結下載點這裡
xun6◎Mipony 1.2.2免費空間下載加速工具 地址→ 點擊此處瀏覽連結下載點這裡
推薦用網盤下載工具Mipony下載,省時省力:點擊此處瀏覽連結下載點1 點擊此處瀏覽連結下載點2
點擊此處在新視窗瀏覽實際大小的圖片
HDTV-720P [MKV]
< 老大的幸福.Brothers.Happiness.540P.HDTV.x264.AC3 第01集至39集[所有集數] 下載連結資料夾 >
點擊此處瀏覽連結下載點這裡
老大的幸福.Brothers.Happiness.540P.HDTV.x264.AC3 所有集數下載連結資料夾 
Folder link: 
點擊此處瀏覽連結http://www.fileserve.com/list/YnJw3dT

, , ,

☜♥☞阿德 發表在 痞客邦 PIXNET 留言(0) 人氣()