2008年TVB最新熱播劇集《秀才愛上兵》【高清TV粵語中字】[fs mu] 

點擊此處在新視窗瀏覽實際大小的圖片

點擊此處在新視窗瀏覽實際大小的圖片 

【劇 名】:秀才愛上兵 
【英 名】:The Gentle Crackdown II
【監 制】:劉家豪
【編 劇】:石凱婷、馬俊縈、吳鎮宇、翁善瑩 
【編 導】:黃國強、方俊華、歐耀傑、黃偉賢
【助理編導】:黃志華、陳淑玲、王嘉慧、陸鴻基、曾倢霏、黃立天
【編 審】:張華標 
【日 期】:2008年1月21日-2008年2月15日
【製 作】:2007年4月 
【播出時間】:星期一至五 9:30PM 翡翠台、9:30PM 高清翡翠台
【首播日期】:2008年1月21日
【接 檔】:上一檔:1月18日 ←→ 律政新人王II / 下一檔:2月18日 ←→ 最美麗的第七天
【類 型】:古裝武俠 
【製 作】:香港電視廣播(國際)有限公司 
【集 數】:20集
【主 演】:馬浚偉、鄭希怡、黎耀祥、夏 雨、羅冠蘭、李思捷、姚子羚
【語 言】:粵語
【字 幕】:中文
【影片大小】:441MB
【官方網站】:點擊此處瀏覽連結http://tvcity.tvb.com/drama/the_gentle_crackdown_ii/story/
【維基百科】:點擊此處瀏覽連結http://zh.wikipedia.org/wiki/秀才愛上兵
【播 放】:高清播放與具體劇情介紹 

劇情簡介
女主角阿妹的父親良才縣農官陳忠,當年為了救濟災民,不忘朝廷律法,私開糧倉賑災,最后被問罪處斬。百姓有感陳中為他們英勇犧牲,故對阿妹照顧有加。此后阿妹就成為縣內一干百姓的掌上明珠,也成為縣內最得人心的熱血女護農。及后阿妹更遇上了聰穎機智的農官謝皇上,以及幽默寡言的師爺戴從文。他們全都懷著俠義心腸,以天下為己任,卻又常常因雞毛蒜皮小事而互相斗氣,然而無論他們怎么胡鬧,只要良才縣的縣民一有需求,他們都義不容辭,站出來為黎民百姓服務。
某年盛夏,風雨成災,陳忠不忍良材縣農民飽受天禍之苦,私自開啟官倉,接濟農民。因而受朝廷責難,最後更充軍到塞外,患病而死,留下孤女陳細妹。   
幸得祝清庭父親視妹如親女般照顧,儼如一家。而良材縣的農民也皆視妹如同己出,年長的婦人皆是阿妹的乾娘,年長的男人便是妹的乾爹。阿妹快樂地成長,也秉承亡父的俠義精神,成為一個熱血為人的女護農,緊接又輾轉成為一名行俠仗義的女捕快。

謝皇上才高三斗,機智聰穎,抱負做個好官。其父謝蒼天是一個唯
利是圖的米商,曾在一場饑荒之中出於好心用半碗飯救了一個快餓死的小和尚,怎知那小和尚竟成了當今皇上。皇上為報答他的一飯之恩,御賜他九龍白玉碗,報他全家平安。官場黑暗,只是知子莫若父,蒼天深明其子性情,為了圓其心願,不惜投擲萬金捐官,讓其子成為農官。並找來機靈巧智,料事如神,別名大老爺的戴從文作兒子的師爺,替其子排難解紛。   
梁飛雁為梁小蝶報仇追殺皇上。原來小蝶為杭州名妓,戀上自稱是良材縣大利米店少東謝皇上,但小蝶遭謝皇上騙財騙色後,服下毒酒自盡。飛雁從小蝶留下的札記,得悉謝皇上的惡行,證據皆對皇上極度不利。與此同時,蘇鎮東接任為良材縣的縣官,親自審理此案。鎮東與從文積怨甚深,加上收取了真兇的賄賂錢,欲將罪名加諸謝皇上身上。幸從文抽絲剝繭,指出種種證據,指證害死小蝶的真兇,另有其人,救回皇上。而皇上得吏部尚書賞識,故被提拔為良材縣縣官,代替一氣之下要求調往別處的蘇鎮東,從此為民伸張正義,為世間難得的清廉好官。   
其後,在香水被殺案中,謝皇上和戴從文憑著機智,偵破香水未死,死者另有其人,兩人惺惺相惜,關係更為密切。   不久,蘇鎮東昇為六府巡按,來到良才縣巡查,並派其弟獻計陷害謝皇上等一干人。他們陷害小妹殺人,皇上為免小妹受牢獄之苦,情急之下想出與小妹假成婚,當小妹成為了謝家一份子,以當今聖上御踢的飯碗保其平安。皇上這的相救,令妹深深感動。   
師爺戴從文為了令衙門上下免遭蘇鎮東迫害,離開良材縣往尋找其孿生兄長八府巡按從武。未料,從武身患絕症,從文傷心之餘,卻毅然決定代替從武的高官身份,重臨良材縣、解救謝家上下,暗中幫助皇上和搞笑捕快「粥粉面飯」
偵破奇案,更加得償夙願、斬殺貪官、平凡奇案,無所畏懼、痛快淋漓。

故事大綱
良材縣之女 
某年盛夏,風雨成災,陳忠不忍良材縣農民飽受天禍之苦,私自打開官倉,接濟農民。因而受朝廷責難,最後更充軍到塞外,患病而死,留下孤女陳細妹。
幸得祝清庭父親視妹如親女般照顧,儼如一家。而良材縣的農民也皆視妹如同己出,年長的婦人皆是阿妹的乾娘,年長的男人便是妹的乾爹。妹快樂地成長,也秉承亡父的俠義精神,成為一個熱血為人的女護農。


屢破奇案 
謝皇上文采風流,機智聰穎,抱負做個好官,但其父謝蒼天卻是一個唯利是圖的米商,只是知子莫若父,蒼天深明其子性情,為了圓其心願,不惜投擲萬金捐官,讓其子成為農官。並找來機靈巧智;別名大老爺的戴從文作兒子的師爺,替其子排難解紛。
梁飛雁為妹小蝶報仇追殺皇上。原來小蝶為杭州名妓,戀上自稱是良材縣大利米店少東謝皇上,但小蝶遭謝皇上騙財騙色後,服下毒酒自盡。飛雁從小蝶留下的札記,得悉謝皇上的惡行,証據皆對皇上極度不利。與此同時,蘇鎮東接任為良材縣的縣官,親自審理此案。鎮東與從文積怨甚深,加上收取了真兇的賄賂錢,欲將罪名加諸謝皇上身上。幸從文抽絲剝繭,指出種種證據,指證害死小蝶的真兇,另有其人,救回皇上。
其後,在香水被殺案中,皇上和從文憑著機智,偵破香水未死,死者另有其人,兩人惺惺相惜,關係更為密切。
不久,與唐水父親唐大海被殺,事件牽涉鎮東之弟蘇鎮南,實情海是遭祝清庭誤殺,妹決隱瞞真相,為兄代罪。妹被控告,皇上為免妹受牢獄之苦,情急之下想出與妹假成婚,當妹成為了謝家一份子,以當今聖上御踢的飯碗保其平安。皇上這的相救,令妹深深感動。
另一方面,從文離開良材縣往尋找其孿生親兄從武。未料,從武已辭世,從文傷心之餘,卻毅然決定冒認從武的貪官身份,以新上任縣官大人之態,重臨良材縣,暗中幫助皇上和偵破奇案。

人物關係圖↓
點擊此處在新視窗瀏覽實際大小的圖片
謝皇上(馬浚偉飾)

皇上出身於米商之家,謝蒼天之子,因天為表對聖上的感激御賜九龍白玉碗,便將他的名字改為「謝皇上」。皇上自恃聰明,最怕蠢人,長大後,任職良才縣農官。
一次,皇上率領從文等人到長沙查察貪官罪証時,妹一意孤行要跟隨大隊前往,途中皇上常被妹戲弄,最後更因妹而墮海。自此之後,皇上更覺妹是災星。
未幾,皇上經小蝶兇殺案後,接受從文的建議聘請了妹作女護農,漸漸地被妹坦率不計較的心性所感染,討厭感漸減。及後,妹牽涉兇殺案中,皇上為救妹,假意與妹成親,以家傳之寶皇上御賜飯碗來保妹安危。


點擊此處在新視窗瀏覽實際大小的圖片
陳細妹(鄭希怡飾)

妹為農官陳忠之女,秉承了亡父的志向,義字當頭,善惡分明,雖然讀書不多,但卻對「俠義」二字堅信不移,往往會因為見義勇為而衝動行事。
父早逝,由祝清庭父親撫養成人。妹自小便有鋤強扶弱之心,但凡農民遇到麻煩,妹也會好打不平。皇上上任農官後,妹與他之間的誤會便沒完沒了,先是誤當皇上是偷碗賊,更把他捉拿到衙門,及後當皇上要到長沙市查探當地貪官巧立名目,勀扣農民的米的證據,妹亦隨皇上出發,一心要儆惡懲奸,但因其率直及衝動的本性,一次又一次的為皇上帶來麻煩。及後,得從文相助,成為女護農,妹深信自己跟從文及皇上這個鐵三角組合必可為民請民,發光發熱。


點擊此處在新視窗瀏覽實際大小的圖片
戴從文(黎耀祥飾)

從文絕頂聰明,足智多謀。自小立志要成為一個好官。後來,從文被天聘請為皇上的師爺。
從文料事如神,滔滔不絕,且所言必準,而皇上亦慶幸自己身邊有這樣出色不凡的好拍擋,惺惺相惜的情誼更是深厚。
後來,從文離開良材縣尋找孿生親兄從武,未料,從武已死,從文便利用兄長的身份,以新上任縣官大人之態,重臨良材縣。因從武是一名大貪官,與從文截然不同,後終被屢有積怨的蘇鎮東揭破,從文又能否憑過人才智衝破這個難關?


點擊此處在新視窗瀏覽實際大小的圖片
謝蒼天﹝夏雨飾﹞

天是良材縣大利米店老闆,衣食無憂,風趣幽默,愛出風頭。某年饑荒,天在田間遇到飽受飢餓之苦的小和尚,天送贈半碗飯,原來小和尚就是日後的大明皇帝。
及後天與隱姓埋名的雙刀奇俠游玉蘭成婚,決意在良材縣過著平淡的生活,突然有一天,當今聖上親自到訪,向天坦言一直未忘天當日那半碗飯之恩,苦尋到良材縣,並御賜天九龍白玉碗,寓意天一家終生也有飽飯吃,一生無憂,九龍白玉碗就如免死金牌,可保天一家安渡一生。
天在聖上的庇蔭下,生活便開始富足起來。天對愛子如命,為保護皇上,不讓他經歷任何風浪,故當皇上提出欲為官的意願時,天一力反對。最後在皇的堅持下,天最後也只肯讓步讓皇當上農官。


點擊此處在新視窗瀏覽實際大小的圖片
游玉蘭﹝羅冠蘭飾﹞

良材縣大利米店老闆娘,皇上的娘親。表面上是為一個普通富家婦人,為人賢良淑德,持家有道,性格隨和樂天,但蘭卻原來有雙重身份,她實則為一個出身於江湖的神勇女俠,人稱「雙刀奇俠」。
蘭下嫁天之前,一心為民請命,殺過無數奸官,但一次為奸人所害,意外受傷,幸得天相救。自此兩人漸生情愫,蘭對天作出承諾,嫁給天後便從此隱姓埋名,兩人過著平淡的生活,一生都不再出手。後來一次事件中,蘭迫於無奈出手救皇上,蘭才身份暴露。


點擊此處在新視窗瀏覽實際大小的圖片
祝清庭﹝李思捷飾﹞

良材縣衙門四大衙差「粥粉麵飯」之首,妹的契哥。生性不學無術,貪生怕死,練精學懶,好高鶩遠,看風駛帆,認為「便宜莫貪」這句話是天下第一大笑話。
庭腦筋轉得快,往往在危難之際亦會挺身而出,助皇及妹一把。庭和蘇鎮南均鍾情唐水,故甚討厭鎮南。

※劇  照※ 
點擊此處在新視窗瀏覽實際大小的圖片

點擊此處在新視窗瀏覽實際大小的圖片

點擊此處在新視窗瀏覽實際大小的圖片

點擊此處在新視窗瀏覽實際大小的圖片

※截  圖※ 
點擊此處在新視窗瀏覽實際大小的圖片
點擊此處在新視窗瀏覽實際大小的圖片 
※影片格式資訊※
General
Complete name : 秀才愛上兵.The.Gentle.Crackdown.II.EP05.mkv
Format : Matroska
File size : 442 MiB
Duration : 43mn 42s
Overall bit rate : 1 413 Kbps
Encoded date : UTC 2011-07-23 15:26:22
Writing application : mkvmerge v4.8.0 ('I Got The...') 編譯於 May 24 2011 03:12:58
Writing library : libebml v1.2.0 + libmatroska v1.1.0
Video #1
ID : 1
Format : MPEG-4 Visual
Format profile : AdvancedSimple@L5
Format settings, BVOP : Yes
Format settings, QPel : No
Format settings, GMC : No warppoints
Format settings, Matrix : Default (H.263)
Codec ID : DX50
Codec ID/Hint : DivX 5
Duration : 43mn 39s
Bit rate : 1 257 Kbps
Width : 640 pixels
Height : 480 pixels
Display aspect ratio : 4:3
Frame rate : 29.970 fps
Resolution : 24 bits
Colorimetry : 4:2:0
Scan type : Progressive
Bits/(Pixel*Frame) : 0.137
Stream size : 393 MiB (89%)
Title : Move(影片軌)
Writing library : XviD 1.2.0.dev47 (UTC 2006-11-01)
Language : Chinese
Audio #2
ID : 2
Format : MPEG Audio
Format version : Version 1
Format profile : Layer 3
Codec ID : A_MPEG/L3
Codec ID/Hint : MP3
Duration : 43mn 42s
Bit rate mode : Constant
Bit rate : 128 Kbps
Channel(s) : 2 channels
Sampling rate : 44.1 KHz
Resolution : 16 bits
Stream size : 40.0 MiB (9%)
Title : Cantonese(粵語)
Language : Chinese
Text #3
ID : 3
Format : UTF-8
Codec ID : S_TEXT/UTF8
Codec ID/Info : UTF-8 Plain Text
Title : CHT(繁體中文)
Language : Chinese

下載教學步驟一:
進入下載畫面之後,移動到網頁右下方你會看到"普通下載"的按鈕,選擇按下"普通下載"等一下下會出現識別碼,依照顯示的識別碼輸入即可。


下載教學步驟二:
移動到網頁右上方你會看到倒數的秒數出現,等待秒數完成後按下"普通下載"即可下載。

PS:如果識別碼不清楚可以選擇更新輸入後確定等待約20秒即可下載,下載點不支援 訊雷、快車、BT..等等續傳軟體,請使用IE瀏覽器下載。

點擊此處瀏覽連結下載教學網頁圖片請點這裡
-----------------------------------------------------------------
2008年TVB最新熱播劇集《秀才愛上兵》【高清TV粵語中字】
----------------------------------------------------------------- 
點擊此處瀏覽連結點擊此處注冊後可以免費得到一個500GB的空間獲得高速下載通道: 
點擊此處瀏覽連結 
點擊此處在新視窗瀏覽實際大小的圖片
DVDRip-TV-480P [MKV]
< 秀才愛上兵 第01集至20集[所有集數] 下載連結資料夾 >
點擊此處瀏覽連結下載點這裡
秀才愛上兵 所有集數下載連結資料夾 
Folder link:
點擊此處瀏覽連結http://www.fileserve.com/list/3atsjUC

, , ,

☜♥☞阿德 發表在 痞客邦 PIXNET 留言(0) 人氣()