2011年TVB最新熱播劇集《紫禁驚雷》【720P高清TV粵語中字】[fs mu]
2011年TVB最新熱播劇集《紫禁驚雷 The Life And Times of A Sentinel》【720P高清TV粵語中字】 

點擊此處在新視窗瀏覽實際大小的圖片

點擊此處在新視窗瀏覽實際大小的圖片 

【劇 名】:紫禁驚雷
【英 名】:The Life And Times of A Sentinel
【監 制】:梁材遠 
【編 審】:薛家華, 吳肇銅
【編 劇】:文健輝、譚翠珊、何永年、沈立強、 區嘉蕙
【編 導】:羅鎮岳、黃志華、伍冠楨、林鳳玲、 歐耀興
【製作統籌】:余方馨
【首播日期】:2011年7月25日
【播出時間】:2011年7月25日-2011年8月26日 逢星期一至五 8:30PM 翡翠台、8:30PM 高清翡翠台
【拍攝時間】:2010年11月-2011年2月
【接 檔】:上一檔:7月29日 ←→ 團圓 / 下一檔:9月12日 ←→ 九江十二坊
【類 型】:古裝劇情/清裝宮廷 
【製 作】:香港電視廣播(國際)有限公司 
【集 數】:26集
【主 演】:馬浚偉 (飾聶多寶/祈俊傑), 馬國明 (飾愛新覺羅‧福全), 李詩韻 (飾卓紫凝/愛新覺羅‧端敏), 唐詩詠 (飾西魯克‧桂倫), 龔嘉欣 (飾馮雙喜), 陳國邦 (飾愛新覺羅‧玄燁/康熙), 陳錦鴻 (飾愛新覺羅‧福臨/順治), 朱璇 (飾董鄂妃), 姚子羚 (飾佟佳‧曼筠), 苟芸慧 (飾古圖爾‧建澄), 王君馨 (飾顏映雪/惠妃), 程可為 (飾孝莊), 馬海倫 (飾高彩瓊), 郭峰 (飾聶貫一), 張國強 (飾卓樹棠/文樹棠), 羅樂林 (飾納蘭明珠), 呂珊 (飾陳秀妃), 何傲兒 (飾岑翠玉), 魯振順 (飾趙禮和), 麥長青 (飾卓木克‧布齊), 徐榮 (飾愛新覺羅‧常寧), 黃嘉樂 (飾納蘭性德)
【官方網站】:點擊此處瀏覽連結http://programme.tvb.com/drama/thelifeandtimesofasentinel/
【維基百科】:點擊此處瀏覽連結http://zh.wikipedia.org/wiki/紫禁驚雷
【播 放】:高清播放與具體劇情介紹 

劇情簡介
武功高強的聶多寶(馬浚偉)一心為民請命,投考御前侍衛,效命於裕親王福全(馬國明),兩人在宮中建立了一份深厚的手足情,福全更推薦多寶出任三弟康熙皇帝(陳國邦)的近身侍衛,多寶之滿腔熱誠,卻發現宮內雲譎波詭,人人勾心鬥角,福全更包藏禍心,圖謀驚世陰謀,而心上人卓紫凝(李詩韻)竟然捲入後宮權力鬥爭,身邊人時敵時友撲朔迷離,多寶惟有孤軍上陣展開連場暗戰……

人若能在重要關頭,放下心中一個「我」字,為大局著想,才能成就一番大業!聶多寶和裕親王福全,因為一個「我」字,走上兩條完全不同之路。一個執著於一句話,走進萬劫不復之路;一個在重要關頭放下心中的小我,造福蒼生。

福全相助 多寶入選
聶多寶(馬浚偉飾)自幼嗜武,自恃一身好功夫,經常抱打不平。一次與藍翎侍衛爾豪(許家傑飾)衝突,釀成軒然大波,令滿漢之爭更為激烈。康熙(陳國邦飾)為了平息漢人怒火,於是推行一系列新政策,其中一項便是准予漢人子弟考選御前侍衛。多寶自恃功夫了得,於是決意投考。

多寶雖然過關斬將,最後卻未能入選御前侍衛,事件為二皇爺福全(馬國明飾)所知悉,於是與多寶聯手調查,及後才發現事情由太皇太后孝莊(程可為飾)幕後主使。康熙得悉真相,認為事件對多寶甚為不公平,決定讓多寶入選。多寶雖被康熙恩准入侍衛營,但御前侍衛乃皇上之貼身侍衛,入營之前要調查三代,過程中多寶發現自己並非聶貫一(郭峰飾)和高彩瓊(馬海倫飾)的親生子,幸真相最終被掩飾,多寶得以順利成為御前侍衛,並知悉福全二皇爺身份。福全雖然身份顯赫,卻不理二人身份懸殊,與多寶平輩論交。而經此事後,康熙開始信任福全,福全因而受到重用,埋下日後謀反之伏綫。

清宮秘密 謎底揭露
一次,多寶護送孝莊出宮祭祀,見孝莊與虛雲寺掃地僧祈萬昌(駱應鈞飾)似是相識,感到奇怪,把事情告之福全,福全感覺有異,叫多寶追查內情。多寶最終查出自己的身世,驚悉一切來龍去脈,自己竟是萬昌之兒子,而祖父祈道廷(黃智賢飾)當年為了保護順治,不單賠上了生命,更令多寶家散人亡,而康熙和孝莊竟是逼害自己一家的仇人。福全亦恍然順治(陳錦鴻飾)本欲把皇位傳給自己,康熙的皇位全由孝莊策劃奪取。與此同時,福全竟發現了一個新的秘密,就是順治臨終前親筆所書的一封信,福全覺得只要找到這信件,便可以證明自己才是真命天子。福全親自向萬昌逼問信件下落,但信件經已遺失,福全一怒之下殺掉萬昌。在追查過程中,福全更謀害聶家及多寶好友御前侍衛恩澤(鄭俊弘飾),然後將一切事情嫁禍予孝莊、康熙,令多寶誤會二人是殺人兇手,更相信福全說話,福全才是真命天子。

多寶掙扎 放棄刺殺
適時,康熙因為要體察民情,決意南巡,福全負責統籌此行之一切事宜。多寶與康熙獨對,殺死康熙的機會就在眼前,但多寶與康熙相處下來,感覺康熙並非如福全口中所言,殘忍無道之君主,相反他覺得康熙愛民如子,乃世間難得之明君,若然自己因為個人之仇恨,而把康熙殺死,可能令天下百姓失去一個賢君。多寶天人交戰之際,想起和尚衍因(劉江飾)說的一句禪語:「應無所住,而生其心,無住則生死,無所住亦即無所執」,多寶終放棄執著,在重要關頭時,沒有殺害康熙。康熙只知多寶護駕有功,晉升他為侍衛統領。

福全發難 進行逼宮
康熙遇險一事,孝莊怪罪福全失職,下令圈禁福全。福全知道經此一役,再難翻身,萬念俱灰,但多寶此時卻對福全不離不棄,帶衍因見福全,望以佛法開解,福全未有所悟,卻在衍因之禪語:「世間親情不能代替,就算是一國之君都會念及親情」中找到一線生機。福全決定去信康熙,求康熙念及骨肉之情,原諒自己。康熙終於被福全所感動,求孝莊取消福全之罪,福全終於恢復所有職務。

另一方面,福全終於找到順治所寫書信,但順治竟是叫福全忘記過去曾說過傳位之事,要他好好匡扶康熙。福全覺得除孝莊和康熙外,連順治也對自己有欠公道。福全為了奪位,偽造另一封假的順治書信,寫著大清江山屬於福全,並繼續瞞騙多寶,進行逼宮計劃。

福全終於發難,聲討康熙與孝莊罪狀,又拿出偽造的順治書信,振振有詞,指皇位屬於自己,康熙與孝莊知道福全掌握兵權,身處險境,無計可施……

人物關係圖↓
點擊此處在新視窗瀏覽實際大小的圖片

◎劇  照 

點擊此處在新視窗瀏覽實際大小的圖片 
※影片格式資訊※
General
Complete name : 紫禁驚雷.The.Life.And.Times.of.A.Sentinel.720p.E01.mkv
Format : Matroska
File size : 1.35 GiB
Duration : 44mn 6s
Overall bit rate : 4 391 Kbps
Encoded date : UTC 2011-08-02 05:27:52
Writing application : mkvmerge v3.3.0 ('Language') built on Mar 24 2010 14:59:24
Writing library : libebml v0.8.0 + libmatroska v0.9.0
Video #1
ID : 1
Format : AVC
Format/Info : Advanced Video Codec
Format profile : High@L3.1
Format settings, CABAC : Yes
Format settings, ReFrames : 4 frames
Muxing mode : Container profile=Unknown@3.1
Codec ID : V_MPEG4/ISO/AVC
Duration : 44mn 6s
Bit rate : 3 920 Kbps
Nominal bit rate : 4 006 Kbps
Width : 1 280 pixels
Height : 720 pixels
Display aspect ratio : 16:9
Frame rate : 25.000 fps
Resolution : 24 bits
Colorimetry : 4:2:0
Scan type : Progressive
Bits/(Pixel*Frame) : 0.170
Stream size : 1.21 GiB (89%)
Writing library : x264 core 98 r1629 2e81ce1
Encoding settings : cabac=1 / ref=5 / deblock=1:-2:-1 / analyse=0x3:0x113 / me=umh / subme=7 / psy=1 / psy_rd=1.00:0.00 / mixed_ref=1 / me_range=16 / chroma_me=1 / trellis=1 / 8x8dct=1 / cqm=0 / deadzone=21,11 / fast_pskip=0 / chroma_qp_offset=-2 / threads=6 / sliced_threads=0 / nr=0 / decimate=1 / interlaced=0 / constrained_intra=0 / bframes=3 / b_pyramid=1 / b_adapt=1 / b_bias=0 / direct=3 / weightb=1 / weightp=2 / keyint=250 / keyint_min=25 / scenecut=40 / intra_refresh=0 / rc_lookahead=40 / rc=2pass / mbtree=1 / bitrate=4006 / ratetol=1.0 / qcomp=0.60 / qpmin=10 / qpmax=51 / qpstep=4 / cplxblur=20.0 / qblur=0.5 / vbv_maxrate=20000 / vbv_bufsize=20000 / ip_ratio=1.40 / aq=1:1.00 / nal_hrd=none
Language : English
Audio #2
ID : 2
Format : AC-3
Format/Info : Audio Coding 3
Codec ID : A_AC3
Duration : 44mn 6s
Bit rate mode : Constant
Bit rate : 384 Kbps
Channel(s) : 6 channels
Channel positions : Front: L C R, Surround: L R, LFE
Sampling rate : 48.0 KHz
Stream size : 121 MiB (9%)
Title : Cantonese(粵語)
Language : Chinese
Text #3
ID : 3
Format : UTF-8
Codec ID : S_TEXT/UTF8
Codec ID/Info : UTF-8 Plain Text
Title : CHT(繁體中文)
Language : Chinese
Text #4
ID : 4
Format : UTF-8
Codec ID : S_TEXT/UTF8
Codec ID/Info : UTF-8 Plain Text
Title : CHS(簡体中文)
Language : Chinese

點擊此處在新視窗瀏覽實際大小的圖片

點擊此處在新視窗瀏覽實際大小的圖片


下載教學步驟一:
進入下載畫面之後,移動到網頁右下方你會看到"普通下載"的按鈕,選擇按下"普通下載"等一下下會出現識別碼,依照顯示的識別碼輸入即可。


下載教學步驟二:
移動到網頁右上方你會看到倒數的秒數出現,等待秒數完成後按下"普通下載"即可下載。

PS:如果識別碼不清楚可以選擇更新輸入後確定等待約20秒即可下載,下載點不支援 訊雷、快車、BT..等等續傳軟體,請使用IE瀏覽器下載。

點擊此處瀏覽連結下載教學網頁圖片請點這裡
-----------------------------------------------------------------
2011年TVB最新熱播劇集《紫禁驚雷》[720P高清TV粵語中字] 
----------------------------------------------------------------- 
點擊此處瀏覽連結點擊此處注冊後可以免費得到一個500GB的空間獲得高速下載通道: 
點擊此處瀏覽連結點擊此處在新視窗瀏覽實際大小的圖片 
點擊此處在新視窗瀏覽實際大小的圖片
HDTV-720P [MKV]
< 紫禁驚雷第01集至26集[所有集數] 下載連結資料夾 >
點擊此處瀏覽連結下載點這裡
紫禁驚雷所有集數下載連結資料夾 Folder link: 點擊此處瀏覽連結http://www.fileserve.com/list/RkGrc5Q

, ,

☜♥☞阿德 發表在 痞客邦 PIXNET 留言(0) 人氣()