2000年TVB最新熱播劇集《陀槍師姐 II》【高清TV粵語中字】[fs mu]

點擊此處在新視窗瀏覽實際大小的圖片
點擊此處在新視窗瀏覽實際大小的圖片 

【劇 名】:陀槍師姐 II 
【英 名】:Armed Reaction II 
【監 制】:鄺業生
【編 劇】:黃育德、劉小群、潘漫紅、鄭成武等 
【編 導】:關永忠、王 信、黃國輝、方俊華、陳湘娟
【編 審】:蔡淑賢, 歐冠英 
【日 期】:2000年5月29日-2000年7月8日 
【播出時間】:星期一至五 9:30PM 翡翠台、9:30PM 高清翡翠台
【首播日期】:2000年8月8日
【拍攝時間】:2000年
【接 檔】:廉政行動2007 / 上一檔:2月28日 ←→ 陀槍師姐III / 下一檔:4月22日 ←→ 不速之約
【類 型】:時裝警匪/警務紀實 
【製 作】:香港電視廣播(國際)有限公司 
【集 數】:32集
【主 演】:關詠荷(飾 朱素娥)、歐陽震華(飾 陳小生)、滕麗名(飾 陳三元)、魏駿傑(飾 程 峰)、姚瑩瑩(飾 沈 翹)、姚樂怡(飾 陳五福)、張兆輝(飾 楊光照) 
【格 式】:DVD-MKV
【語 言】 :粵語
【字 幕】 :內崁中文字幕
【官方網站】:點擊此處瀏覽連結http://tvcity.tvb.com/drama/gun2
【維基百科】:點擊此處瀏覽連結http://zh.wikipedia.org/wiki/陀槍師姐II
【播 放】:高清播放與具體劇情介紹 

劇情簡介
陀槍師姐朱素娥與陳小生在上一輯的結合,原來只是生的幻想,娥對婚姻缺乏信心,決定用一年時間觀察生的表現。工作上,娥被升為沙展,並調往E衝鋒隊,以其「師奶仔」性格去領導一群男子漢,遇到了前所未有的挫折,故寄望生可加快升職,穩定經濟,讓其可托付終身。
陳小生被朱素娥「箝制」至透不過氣之時,結識了一靚女鄰居沈翹,翹浪漫獨立,與生非常合拍,更主動向生示愛,生與娥之感情遂亮起紅燈……
另一方面,女警陳三元與程鋒雖順利結成夫婦,但由於兩人均好強,婚後常起衝突,工作上亦互相對峙,元毅然申請調職,加入了衝鋒隊。自此,鋒與元聚少離多,鋒寂寞難耐下到酒吧賣醉,竟與一女郎發生一夜情,元知悉後憤然與鋒分居。為與鋒拗氣,元過份冒險地追查一宗「的士色魔」案件,卻不慎落入魔掌……

人物關係圖↓
歐陽震華(飾 陳小生)
點擊此處在新視窗瀏覽實際大小的圖片
性格及背景:風趣幽默,樂天知命,為人豪爽,不拘小節,給人吊兒郎當之感,實際上頭腦冷靜,心思慎密。

關詠荷(飾 朱素娥)
點擊此處在新視窗瀏覽實際大小的圖片
性格及背景:熱情開朗,樂於助人,愛護家庭,小時精明,大事糊塗,無甚主見,事事依賴丈夫,離婚後性格變得堅強,處事獨立、果斷,勇往直前,但仍有柔情似水的一面。

滕麗名(飾 陳三元)
點擊此處在新視窗瀏覽實際大小的圖片
性格及背景:爽朗率直,活躍好動,聰明細心,富正義感,有同情心,惟好勝心強,主觀硬頸,處事有時亦頗衝動。其實心底蘊藏女性特質,堅毅不屈,有耐性,基本上是外剛內柔。

張兆輝(飾 楊光照)
點擊此處在新視窗瀏覽實際大小的圖片
性格及背景:穩重踏實,重情重義,忠厚耿直,熱心助人,是典型好好先生,惟遇上忍無可忍不平事,暴躁性格便會突然爆發。

姚瑩瑩(飾 沈 翹)
點擊此處在新視窗瀏覽實際大小的圖片
性格及背景:堅強獨立,我行我素,敢愛敢恨,敢作敢為,凡事即興,想做就去做,完美主義者,性情浪漫,有品味,懂生活情趣。

姚樂怡(飾 陳五福)
點擊此處在新視窗瀏覽實際大小的圖片
性格及背景:內向沈靜,勤奮好學,循規蹈矩,思想稍嫌單純,沒甚主見,且拙於辭令。

◎劇  照 

點擊此處在新視窗瀏覽實際大小的圖片 
※影片格式資訊※
General
Complete name : 陀槍師姐 II.Armed.Reaction.II.2000.DVDRip.EP01.mkv
Format : Matroska
File size : 360 MiB
Duration : 43mn 39s
Overall bit rate : 1 153 Kbps
Movie name : 01
Encoded date : UTC 2010-03-23 11:35:59
Writing application : mkvmerge v3.0.0 ('Hang up your Hang-Ups')編譯於 Dec 12 2009 15:20:35
Writing library : libebml v0.7.9 + libmatroska v0.8.1
Video #1
ID : 1
Format : AVC
Format/Info : Advanced Video Codec
Format profile : High@L4.0
Format settings, CABAC : Yes
Format settings, ReFrames : 3 frames
Muxing mode : Container profile=Unknown@4.0
Codec ID : V_MPEG4/ISO/AVC
Duration : 43mn 37s
Bit rate : 1 002 Kbps
Nominal bit rate : 1 024 Kbps
Width : 720 pixels
Height : 540 pixels
Display aspect ratio : 4:3
Frame rate : 29.970 fps
Resolution : 24 bits
Colorimetry : 4:2:0
Scan type : Progressive
Bits/(Pixel*Frame) : 0.086
Stream size : 313 MiB (87%)
Writing library : x264 core 80 r1376kGIT 3feaec2
Encoding settings : cabac=1 / ref=3 / deblock=1:0:0 / analyse=0x3:0x133 / me=umh / subme=7 / psy=1 / psy_rd=1.0:0.0 / mixed_ref=1 / me_range=16 / chroma_me=1 / trellis=1 / 8x8dct=1 / cqm=0 / deadzone=21,11 / fast_pskip=1 / chroma_qp_offset=-2 / threads=3 / sliced_threads=0 / nr=0 / decimate=1 / mbaff=0 / constrained_intra=0 / bframes=3 / b_pyramid=0 / b_adapt=1 / b_bias=0 / direct=3 / wpredb=1 / wpredp=2 / keyint=300 / keyint_min=30 / scenecut=40 / rc_lookahead=40 / rc=2pass / mbtree=1 / bitrate=1024 / ratetol=1.0 / qcomp=0.60 / qpmin=10 / qpmax=51 / qpstep=4 / cplxblur=20.0 / qblur=0.5 / vbv_maxrate=25000 / vbv_bufsize=25000 / ip_ratio=1.40 / aq=1:1.00
Audio #2
ID : 2
Format : AC-3
Format/Info : Audio Coding 3
Codec ID : A_AC3
Duration : 43mn 39s
Bit rate mode : Constant
Bit rate : 128 Kbps
Channel(s) : 2 channels
Channel positions : L R
Sampling rate : 48.0 KHz
Stream size : 40.0 MiB (11%)

點擊此處在新視窗瀏覽實際大小的圖片

點擊此處在新視窗瀏覽實際大小的圖片

點擊此處在新視窗瀏覽實際大小的圖片
下載教學步驟一:
進入下載畫面之後,移動到網頁右下方你會看到"普通下載"的按鈕,選擇按下"普通下載"等一下下會出現識別碼,依照顯示的識別碼輸入即可。


下載教學步驟二:
移動到網頁右上方你會看到倒數的秒數出現,等待秒數完成後按下"普通下載"即可下載。

PS:如果識別碼不清楚可以選擇更新輸入後確定等待約20秒即可下載,下載點不支援 訊雷、快車、BT..等等續傳軟體,請使用IE瀏覽器下載。

點擊此處瀏覽連結下載教學網頁圖片請點這裡
-----------------------------------------------------------------
2000年TVB最新熱播劇集《陀槍師姐 II》[高清TV粵語中字] 
----------------------------------------------------------------- 
點擊此處瀏覽連結點擊此處注冊後可以免費得到一個500GB的空間獲得高速下載通道: 
點擊此處瀏覽連結 
點擊此處在新視窗瀏覽實際大小的圖片
HDTV-720P [MKV]
< 陀槍師姐II 第01集至32集[所有集數] 下載連結資料夾 >
點擊此處瀏覽連結下載點這裡
陀槍師姐II 所有集數下載連結資料夾 Folder link:點擊此處瀏覽連結http://www.fileserve.com/list/N6y59k5

,

☜♥☞阿德 發表在 痞客邦 PIXNET 留言(1) 人氣()


留言列表 (1)

發表留言
  • 訪客
  • Ty
【 X 關閉 】

【PIXNET 痞客邦】國外旅遊調查
您是我們挑選到的讀者!

填完問卷將有機會獲得心動好禮哦(注意:關閉此視窗將不再出現)

立即填寫取消