2011年TVB最新熱播劇集《潛行狙擊》【720P高清TV粵語中字】 

點擊此處在新視窗瀏覽實際大小的圖片


點擊此處在新視窗瀏覽實際大小的圖片 

【劇 名】:潛行狙擊 
【英 名】:Lives of Omission 
【監 制】:莊偉建 
【編 導】:蘇萬聰, 鍾國強
【編 審】:蔡淑賢, 歐冠英 
【日 期】:2011年8月8日-2011年9月9日 
【播出時間】:星期一至五 9:30PM 翡翠台、9:30PM 高清翡翠台
【首播日期】:2011年8月8日
【接 檔】:不速之約 / 上一檔:7月29日 ←→ 真相 / 下一檔:9月12日 ←→ 不速之約
【類 型】:時裝警匪 
【拍攝時間】:2011年3月-2011年7月
【製 作】:香港電視廣播(國際)有限公司 
【集 數】:30集
【主 演】:謝天華 (飾梁笑棠), 黃宗澤 (飾蘇星柏), 劉松仁 (飾鞏家培), 陳法拉 (飾周望晴), 徐子珊 (飾姚可可), 韓馬利 (飾何秀美), 狄易達 (飾鞏樂勤), 歐陽靖 (飾楊立青), 周志文 (飾方俊龍), 周志康 (飾孫少杰), 林穎彤 (飾林寶甜), 郭政鴻 (飾司徒凱), 張國強 (飾莫一烈), 江美儀 (飾袁君嵐), 黃智雯 (飾蒙心凌) 
【其他演員】:于洋, 王維德, 林敬剛, 梁舜燕, 黃子衡, 黃智賢 (飾), 潘芳芳, 戴耀明, 王俊棠, 陸駿光, 黃煒溏, 江富強, 夏竹欣 (飾), 曾守明, 羅天宇, 陳宛蔚, 李豪, 湯俊明, 麥嘉倫, 顏桂洲, 潘宗揚, 王德基, 呂熙, 楊鴻俊, 陳偉洪, 郭卓樺, 侯建民, 方紹聰, 羅天池, 魏惠文, 陳珈穎, 鄺佐輝, 楊瑞麟, 高俊文, 鍾志光, 林影紅, 何婷恩, 李嘉, 杜港, 魏焌皓, 李興華, 劉秉賓, 司徒暉, 鄭子揚, 王致迪, 姚浩政, 鍾鈺精, 王東泰, 梁証嘉, 陳康健, 張景淳, 關浩揚, 鄧以豪, 尹詩沛, 章宇昂, 魏穎彤, 何美好, 黃子雄, 冼迪新, 王青, 江梓瑋, 謝卓言, 計祥龍, 林婉霞, 梁健平, 曾健明, 丘惠玲, 何俊軒, 馬貫東, 曾琬莎, 趙樂賢, 鄭世豪, 張帆, 楊潮凱, 黃耀煌, 柯嵐, 黃得生, 楊智朗, 葉家泓, 姚兵, 林日昇, 李美慧, 陳振業, 陳文靜, 李善恆, 卓躒, 葉暐, 黎彼得, 李海生, 招石文, 黃文標, 李偉健, 葉婷芝, 頌誼, 何慶暉, 李啟傑, 楊證樺
【官方網站】:點擊此處瀏覽連結http://programme.tvb.com/drama/livesofomission/
【維基百科】:點擊此處瀏覽連結http://zh.wikipedia.org/wiki/潛行狙擊
【播 放】:高清播放與具體劇情介紹 

劇情簡介
梁笑棠(謝天華飾)重返警隊當教官,加入刑事情報科培育新一代臥底,並認識了聰明機警的古惑仔蘇星柏(黃宗澤飾)。人建立警察和線人的關係,合作無間,兄弟相稱,但心思慎密的星柏只想藉笑棠之力助自己登上坐館之路,而他和青梅竹馬的女友大律師姚可可(徐子珊飾)若即若離,因各人心底裡永遠缺乏一份信任。棠的上司周望晴(陳法拉飾)督察貌似已故女友,因工作關係與笑棠日久生情,但二人感覺總徘徊在上司和情人之間,因而衍生不少衝突、矛盾與考驗。望晴與警司鞏家培(劉松仁飾)是師徒關係,二人覺得笑棠適應不了過於紀律的生活,直至星柏為上位犧牲笑棠的同僚,笑棠不惜身犯險境,重操故業做臥底對付星柏,危機一觸即發……

故事大綱

梁笑棠(謝天華飾)擔任臥底已有多年光景,過去的臥底生涯,讓笑棠建立了一套他個人當警察的原則-「做事可沒底線,但立場從一而終」,即使他再踩界、再有欺瞞,他的心仍然是白-「一日警察,一世警察」,從第一天當臥底,這忠義精神已植根在他的腦裡。笑棠聯同國內公安成功搗破一個粵港犯罪集團,回復警察身份,被CIB高級警司鞏家培(劉松仁飾)任命為CIB刑事情報科教官,與CIB高級督察周望晴(陳法拉飾)專責物色及訓練臥底。望晴與笑棠培訓新成員蒙心凌(黃智雯飾)、楊立青(歐陽靖飾)、孫少杰(周志康飾)、林寶甜(林穎彤飾)及郭定天(羅鈞滿飾)成為出色的臥底學員……
望晴從小與母親何秀美(韓馬利飾)相依為命,聰明能幹的她,廿一歲考入警隊,當見習督察,駐守過特別職務隊O記和毒品調查科,擅長分析,再複雜的大案都難不過她,在隊中,最得家培欣賞。望晴在笑棠工作上受到連番打擊時不自覺地對他產生憐憫,從而情不自禁愛上了他。直至一次生死關頭,二人終於向對方表白心事,爆發激情,展開了秘密情侶關係。家培兒子鞏樂勤(狄易達飾)為瓦解校園販毒,以身犯險,最終被人悉破,有性命危險,幸得家培前女友袁君嵐(江美儀飾)、笑棠與望晴暗助樂勤而脫險……
古惑仔蘇星柏(黃宗澤飾)出獄後行路一拐一拐,行事變得收斂低調,顯得寒寒酸酸。打架劈友之事,星柏永遠站在最後,逃命時比誰都快,被同門兄弟取笑,以為他一蹶不振,從此掉以輕心。其實他一直處心積累,目的是坐上坐館之位。星柏主動獻身做笑棠線人,是借提供線報以清除異己。借著笑棠之助,星柏成為社團坐館莫一烈(張國強飾)身邊得力助手。及後,笑棠和星柏一同為一烈服務,爭取新界北的巨大利益。一烈突然被人暗殺而死,星柏接手社團,他一直培植及招攬各階層精英為其辦事,一方面善用一烈的前手下鄧國彬(黃智賢飾)及方俊龍(周志文飾),一方面與CIB跟蹤組警長司徒凱(郭政鴻飾)及定天勾結,更得大律師馮應駒(于洋飾)徒弟姚可可(徐子珊飾)之助而走法律隙,以合法商人姿態出入,令警方也束手無策,成為笑棠的最強敵人……
演 員 : 劉松仁、陳法拉、謝天華、徐子珊、黃宗澤、歐陽靖、林穎彤
監 製 : 莊偉建
編 審 : 歐冠英、蔡淑賢 

簡介
首播日期: 2011.08.01
Laughing回復警察身份

梁笑棠(謝天華飾)搗破社團「進興」後而貌似犧牲,其實死亡只是掩飾,在這幾年他潛伏國內,繼續當臥底。

棠聯同國內公安成功搗破一個粵港犯罪集團,回復警察身份,被任命CIB刑事情報科教官,專責物色及訓練臥底。

棠是一個另類教官,他囂張、浮誇、不依規矩辦事、凡事去盡沒底線的作風,不容易被學員接受,亦惹來同事及上司不滿。

為破案再闖黑道

棠長期於黑社會圈中打滾,忍受不了講求紀律的警察生活,成為一位流氓警察,令上司十分頭痛,他更收了古惑仔蘇星柏(黃宗澤飾)為線人。

柏年約二十多歲,行路一拐一拐,但動作卻十分敏捷,柏表面是一個寒酸及一事無成的古惑仔,內裡卻聰明絶頂而且充滿心計。柏家道中落被逼輟學,轉入黑道後因鋒芒太露而被同門教訓,不但變了跛子,更做了幾年監犯,自此柏變得低調,但暗地部署上位計劃。棠及柏,一個是警察,一個是線人,一方面互惠互利,一方面又互相防避,兩人之間有一段似真還假的兄弟情。然而柏不甘於做棠的線人,最後出賣棠更上一層樓。棠為對付日盛猖狂的黑社會,毅然申請再當卧底,混入新界北做古惑仔。

莫一烈(張國強飾)是柏所屬社團「義豐」的坐館,新界北是他的勢力範圍,烈表面親和,其實笑裡藏刀。棠搜集到足夠証據要將他繩之以法,烈突然被人暗殺而死。棠發現背後似有高人佈局,於是繼續掩藏身份,想抽出幕後黑手,結果他發現一直跟自己稱兄道弟,柏竟然就是最後坐館!


鐵漢柔情

棠跟CIB高級督察周望晴(陳法拉飾)發展出一段黑白是非之戀。晴是棠的上司兼聯絡員(Handler)。晴貌似棠死去的女友,性格卻南轅北徹。

晴動靜皆宜,是一個硬朗的女幹探,跟棠由歡喜冤家,演變為情侶。一個是女督察,一個是臥底,他們的愛情只可以偷偷摸摸,但亦充满矛盾和考驗,特別是棠在新界北上位,開始我行我素,甚至對晴有所隱瞞,晴徘徊在上司跟情人之間兩種角色,一方面要信任棠,但一方面又要監察他,如果棠過了底線,必要時要下令對付他。

至於柏與姚可可(徐子珊飾)是青梅竹馬的中學同學,後來一個是古惑仔,一個是律師。柏因為犯事坐監又成了跛子,姚為了前途跟柏分手。姚父母早逝,自小已經渴望出人頭地,為了成功出位,亦不惜走捷徑,所以一畢業就拜有「金牙大狀、警廉尅星」之稱的馮應駒(于洋飾)為師,專門幫助黑社會打官司脫罪,亦因此跟柏再有糾纏,因為在兩人心底裡,其實都放不下對方。

人物關係圖↓
點擊此處在新視窗瀏覽實際大小的圖片
※影片格式資訊※
General
Complete name : TVB 潛行狙擊.Lives.Of.Omission.720P.E04.mkv
Format : Matroska
File size : 1.04 GiB
Duration : 43mn 48s
Overall bit rate : 3 401 Kbps
Encoded date : UTC 2011-08-04 15:17:06
Writing application : mkvmerge v2.9.8 ('C'est le bon') built on Aug 13 2009 12:49:06
Writing library : libebml v0.7.7 + libmatroska v0.8.1
Video #1
ID : 1
Format : AVC
Format/Info : Advanced Video Codec
Format profile : Main@L3.1
Format settings, CABAC : Yes
Format settings, ReFrames : 2 frames
Muxing mode : Container profile=Unknown@3.1
Codec ID : V_MPEG4/ISO/AVC
Duration : 43mn 48s
Bit rate : 2 949 Kbps
Nominal bit rate : 3 000 Kbps
Width : 1 280 pixels
Height : 720 pixels
Display aspect ratio : 16:9
Frame rate : 25.000 fps
Resolution : 24 bits
Colorimetry : 4:2:0
Scan type : Progressive
Bits/(Pixel*Frame) : 0.128
Stream size : 924 MiB (87%)
Title : Move(影片軌)
Writing library : x264 core 114 r1913 5fd3dce
Encoding settings : cabac=1 / ref=1 / deblock=1:0:0 / analyse=0x1:0x131 / me=hex / subme=4 / psy=1 / psy_rd=0.00:0.00 / mixed_ref=0 / me_range=16 / chroma_me=1 / trellis=0 / 8x8dct=0 / cqm=0 / deadzone=21,11 / fast_pskip=1 / chroma_qp_offset=0 / threads=6 / sliced_threads=0 / nr=0 / decimate=1 / interlaced=0 / constrained_intra=0 / bframes=3 / b_pyramid=0 / b_adapt=1 / b_bias=0 / direct=1 / weightb=1 / open_gop=0 / weightp=2 / keyint=250 / keyint_min=25 / scenecut=40 / intra_refresh=0 / rc=abr / mbtree=0 / bitrate=3000 / ratetol=1.0 / qcomp=0.60 / qpmin=10 / qpmax=51 / qpstep=4 / ip_ratio=1.40 / pb_ratio=1.30 / aq=1:1.00
Language : Chinese
Audio #2
ID : 2
Format : AC-3
Format/Info : Audio Coding 3
Codec ID : A_AC3
Duration : 43mn 48s
Bit rate mode : Constant
Bit rate : 384 Kbps
Channel(s) : 6 channels
Channel positions : Front: L C R, Surround: L R, LFE
Sampling rate : 48.0 KHz
Video delay : 28ms
Stream size : 120 MiB (11%)
Title : Cantonese(粵語)
Language : Chinese
Text #3
ID : 3
Format : UTF-8
Codec ID : S_TEXT/UTF8
Codec ID/Info : UTF-8 Plain Text
Title : CHT(繁體中文)
Language : Chinese
◎劇  照 

點擊此處在新視窗瀏覽實際大小的圖片 

點擊此處在新視窗瀏覽實際大小的圖片

點擊此處在新視窗瀏覽實際大小的圖片


下載教學步驟一:
進入下載畫面之後,移動到網頁右下方你會看到"普通下載"的按鈕,選擇按下"普通下載"等一下下會出現識別碼,依照顯示的識別碼輸入即可。


下載教學步驟二:
移動到網頁右上方你會看到倒數的秒數出現,等待秒數完成後按下"普通下載"即可下載。

PS:如果識別碼不清楚可以選擇更新輸入後確定等待約20秒即可下載,下載點不支援 訊雷、快車、BT..等等續傳軟體,請使用IE瀏覽器下載。

點擊此處瀏覽連結下載教學網頁圖片請點這裡
-----------------------------------------------------------------
2011年TVB最新熱播劇集《潛行狙擊》[720P高清TV粵語中字] 
----------------------------------------------------------------- 
點擊此處瀏覽連結點擊此處注冊後可以免費得到一個500GB的空間獲得高速下載通道: 
點擊此處瀏覽連結 
點擊此處在新視窗瀏覽實際大小的圖片
HDTV-720P [MKV]
< 潛行狙擊第01集至30集[所有集數] 下載連結資料夾 > 點擊此處瀏覽連結下載點這裡
潛行狙擊所有集數下載連結資料夾 Folder link: 點擊此處瀏覽連結http://www.fileserve.com/list/xSa6TDB

潛行狙擊第01集[高清TV粵語中字] 點擊此處瀏覽連結下載點這裡

, ,

☜♥☞阿德 發表在 痞客邦 PIXNET 留言(0) 人氣()